  0
SECTION
  2
HEADER
  9
$ACADVER
  1
AC1015
  9
$ACADMAINTVER
 70
    20
  9
$DWGCODEPAGE
  3
ANSI_932
  9
$INSBASE
 10
0.0
 20
0.0
 30
0.0
  9
$EXTMIN
 10
1800.0
 20
1500.0
 30
0.0
  9
$EXTMAX
 10
82300.00000000002
 20
57900.0
 30
0.0
  9
$LIMMIN
 10
0.0
 20
0.0
  9
$LIMMAX
 10
12.0
 20
9.0
  9
$ORTHOMODE
 70
     1
  9
$REGENMODE
 70
     1
  9
$FILLMODE
 70
     1
  9
$QTEXTMODE
 70
     0
  9
$MIRRTEXT
 70
     0
  9
$LTSCALE
 40
800.0
  9
$ATTMODE
 70
     1
  9
$TEXTSIZE
 40
0.2
  9
$TRACEWID
 40
0.05
  9
$TEXTSTYLE
  7
寸法
  9
$CLAYER
  8
寸法
  9
$CELTYPE
  6
Continuous
  9
$CECOLOR
 62
     0
  9
$CELTSCALE
 40
1.0
  9
$DISPSILH
 70
     0
  9
$DIMSCALE
 40
0.0
  9
$DIMASZ
 40
300.0
  9
$DIMEXO
 40
1000.0
  9
$DIMDLI
 40
1000.0
  9
$DIMRND
 40
0.0
  9
$DIMDLE
 40
0.0
  9
$DIMEXE
 40
100.0
  9
$DIMTP
 40
0.0
  9
$DIMTM
 40
0.0
  9
$DIMTXT
 40
400.0
  9
$DIMCEN
 40
9.0
  9
$DIMTSZ
 40
0.0
  9
$DIMTOL
 70
     0
  9
$DIMLIM
 70
     0
  9
$DIMTIH
 70
     0
  9
$DIMTOH
 70
     0
  9
$DIMSE1
 70
     0
  9
$DIMSE2
 70
     0
  9
$DIMTAD
 70
     1
  9
$DIMZIN
 70
     0
  9
$DIMBLK
  1
Open30
  9
$DIMASO
 70
     1
  9
$DIMSHO
 70
     1
  9
$DIMPOST
  1

  9
$DIMAPOST
  1

  9
$DIMALT
 70
     0
  9
$DIMALTD
 70
     2
  9
$DIMALTF
 40
25.4
  9
$DIMLFAC
 40
1.0
  9
$DIMTOFL
 70
     0
  9
$DIMTVP
 40
0.0
  9
$DIMTIX
 70
     0
  9
$DIMSOXD
 70
     0
  9
$DIMSAH
 70
     0
  9
$DIMBLK1
  1

  9
$DIMBLK2
  1

  9
$DIMSTYLE
  2
30°矢印
  9
$DIMCLRD
 70
     0
  9
$DIMCLRE
 70
     0
  9
$DIMCLRT
 70
     0
  9
$DIMTFAC
 40
1.0
  9
$DIMGAP
 40
200.0
  9
$DIMJUST
 70
     0
  9
$DIMSD1
 70
     0
  9
$DIMSD2
 70
     0
  9
$DIMTOLJ
 70
     1
  9
$DIMTZIN
 70
     0
  9
$DIMALTZ
 70
     0
  9
$DIMALTTZ
 70
     0
  9
$DIMUPT
 70
     0
  9
$DIMDEC
 70
     0
  9
$DIMTDEC
 70
     2
  9
$DIMALTU
 70
     2
  9
$DIMALTTD
 70
     2
  9
$DIMTXSTY
  7
寸法
  9
$DIMAUNIT
 70
     1
  9
$DIMADEC
 70
     0
  9
$DIMALTRND
 40
0.0
  9
$DIMAZIN
 70
     0
  9
$DIMDSEP
 70
    46
  9
$DIMATFIT
 70
     3
  9
$DIMFRAC
 70
     0
  9
$DIMLDRBLK
  1
Open30
  9
$DIMLUNIT
 70
     2
  9
$DIMLWD
 70
    -2
  9
$DIMLWE
 70
    -2
  9
$DIMTMOVE
 70
     0
  9
$LUNITS
 70
     2
  9
$LUPREC
 70
     4
  9
$SKETCHINC
 40
0.1
  9
$FILLETRAD
 40
0.0
  9
$AUNITS
 70
     0
  9
$AUPREC
 70
     0
  9
$MENU
  1
.
  9
$ELEVATION
 40
0.0
  9
$PELEVATION
 40
0.0
  9
$THICKNESS
 40
0.0
  9
$LIMCHECK
 70
     0
  9
$CHAMFERA
 40
0.0
  9
$CHAMFERB
 40
0.0
  9
$CHAMFERC
 40
0.0
  9
$CHAMFERD
 40
0.0
  9
$SKPOLY
 70
     0
  9
$TDCREATE
 40
2455007.301679317
  9
$TDUCREATE
 40
2455006.926679317
  9
$TDUPDATE
 40
2455056.627818819
  9
$TDUUPDATE
 40
2455056.252818820
  9
$TDINDWG
 40
0.8238332060
  9
$TDUSRTIMER
 40
0.8238332060
  9
$USRTIMER
 70
     1
  9
$ANGBASE
 50
0.0
  9
$ANGDIR
 70
     0
  9
$PDMODE
 70
    35
  9
$PDSIZE
 40
0.0
  9
$PLINEWID
 40
0.0
  9
$SPLFRAME
 70
     0
  9
$SPLINETYPE
 70
     6
  9
$SPLINESEGS
 70
     8
  9
$HANDSEED
  5
33C6
  9
$SURFTAB1
 70
     6
  9
$SURFTAB2
 70
     6
  9
$SURFTYPE
 70
     6
  9
$SURFU
 70
     6
  9
$SURFV
 70
     6
  9
$UCSBASE
  2

  9
$UCSNAME
  2

  9
$UCSORG
 10
0.0
 20
0.0
 30
0.0
  9
$UCSXDIR
 10
1.0
 20
0.0
 30
0.0
  9
$UCSYDIR
 10
0.0
 20
1.0
 30
0.0
  9
$UCSORTHOREF
  2

  9
$UCSORTHOVIEW
 70
     0
  9
$UCSORGTOP
 10
0.0
 20
0.0
 30
0.0
  9
$UCSORGBOTTOM
 10
0.0
 20
0.0
 30
0.0
  9
$UCSORGLEFT
 10
0.0
 20
0.0
 30
0.0
  9
$UCSORGRIGHT
 10
0.0
 20
0.0
 30
0.0
  9
$UCSORGFRONT
 10
0.0
 20
0.0
 30
0.0
  9
$UCSORGBACK
 10
0.0
 20
0.0
 30
0.0
  9
$PUCSBASE
  2

  9
$PUCSNAME
  2

  9
$PUCSORG
 10
0.0
 20
0.0
 30
0.0
  9
$PUCSXDIR
 10
1.0
 20
0.0
 30
0.0
  9
$PUCSYDIR
 10
0.0
 20
1.0
 30
0.0
  9
$PUCSORTHOREF
  2

  9
$PUCSORTHOVIEW
 70
     0
  9
$PUCSORGTOP
 10
0.0
 20
0.0
 30
0.0
  9
$PUCSORGBOTTOM
 10
0.0
 20
0.0
 30
0.0
  9
$PUCSORGLEFT
 10
0.0
 20
0.0
 30
0.0
  9
$PUCSORGRIGHT
 10
0.0
 20
0.0
 30
0.0
  9
$PUCSORGFRONT
 10
0.0
 20
0.0
 30
0.0
  9
$PUCSORGBACK
 10
0.0
 20
0.0
 30
0.0
  9
$USERI1
 70
     0
  9
$USERI2
 70
     0
  9
$USERI3
 70
     0
  9
$USERI4
 70
     0
  9
$USERI5
 70
     0
  9
$USERR1
 40
0.0
  9
$USERR2
 40
0.0
  9
$USERR3
 40
0.0
  9
$USERR4
 40
0.0
  9
$USERR5
 40
0.0
  9
$WORLDVIEW
 70
     1
  9
$SHADEDGE
 70
     3
  9
$SHADEDIF
 70
    70
  9
$TILEMODE
 70
     1
  9
$MAXACTVP
 70
    64
  9
$PINSBASE
 10
0.0
 20
0.0
 30
0.0
  9
$PLIMCHECK
 70
     0
  9
$PEXTMIN
 10
-4.573084313602066
 20
-17.86107416140976
 30
0.0
  9
$PEXTMAX
 10
835.4401762790061
 20
578.1192076894862
 30
0.0
  9
$PLIMMIN
 10
-4.995333194732666
 20
-16.93330574035644
  9
$PLIMMAX
 10
835.9139685630799
 20
576.9186840057373
  9
$UNITMODE
 70
     0
  9
$VISRETAIN
 70
     1
  9
$PLINEGEN
 70
     0
  9
$PSLTSCALE
 70
     1
  9
$TREEDEPTH
 70
  3020
  9
$CMLSTYLE
  2
Standard
  9
$CMLJUST
 70
     0
  9
$CMLSCALE
 40
1.0
  9
$PROXYGRAPHICS
 70
     1
  9
$MEASUREMENT
 70
     0
  9
$CELWEIGHT
370
    -1
  9
$ENDCAPS
280
     0
  9
$JOINSTYLE
280
     0
  9
$LWDISPLAY
290
     0
  9
$INSUNITS
 70
     1
  9
$HYPERLINKBASE
  1

  9
$STYLESHEET
  1
acad.ctb
  9
$XEDIT
290
     1
  9
$CEPSNTYPE
380
     0
  9
$PSTYLEMODE
290
     1
  9
$FINGERPRINTGUID
  2
{FDEAD576-A652-11D2-9A35-0060089B3A3F}
  9
$VERSIONGUID
  2
{58D35ED8-C2BA-4624-B3BA-D880F4AEF7B2}
  9
$EXTNAMES
290
     1
  9
$PSVPSCALE
 40
0.0
  9
$OLESTARTUP
290
     0
  0
ENDSEC
  0
SECTION
  2
CLASSES
  0
CLASS
  1
ACDBDICTIONARYWDFLT
  2
AcDbDictionaryWithDefault
  3
ObjectDBX Classes
 90
        0
280
     0
281
     0
  0
CLASS
  1
ACDBPLACEHOLDER
  2
AcDbPlaceHolder
  3
ObjectDBX Classes
 90
        0
280
     0
281
     0
  0
CLASS
  1
LAYOUT
  2
AcDbLayout
  3
ObjectDBX Classes
 90
        0
280
     0
281
     0
  0
CLASS
  1
DICTIONARYVAR
  2
AcDbDictionaryVar
  3
ObjectDBX Classes
 90
        0
280
     0
281
     0
  0
CLASS
  1
DIMASSOC
  2
AcDbDimAssoc
  3
"AcDbDimAssoc|Product Desc:     AcDim ARX App For Dimension|Company:          Autodesk, Inc.|WEB Address:      www.autodesk.com"
 90
        0
280
     0
281
     0
  0
CLASS
  1
PLOTSETTINGS
  2
AcDbPlotSettings
  3
ObjectDBX Classes
 90
        0
280
     0
281
     0
  0
ENDSEC
  0
SECTION
  2
TABLES
  0
TABLE
  2
VPORT
  5
8
330
0
100
AcDbSymbolTable
 70
     2
  0
VPORT
  5
33B8
330
8
100
AcDbSymbolTableRecord
100
AcDbViewportTableRecord
  2
*Active
 70
     0
 10
0.0
 20
0.0
 11
1.0
 21
1.0
 12
42050.00112598095
 22
30257.12982684662
 13
0.0
 23
0.0
 14
0.5
 24
0.5
 15
0.5
 25
0.5
 16
0.0
 26
0.0
 36
1.0
 17
0.0
 27
0.0
 37
0.0
 40
61027.05699593005
 41
1.717696629213483
 42
50.0
 43
0.0
 44
0.0
 50
0.0
 51
0.0
 71
     0
 72
  1000
 73
     1
 74
     2
 75
     0
 76
     0
 77
     0
 78
     0
281
     0
 65
     1
110
0.0
120
0.0
130
0.0
111
1.0
121
0.0
131
0.0
112
0.0
122
1.0
132
0.0
 79
     0
146
0.0
  0
ENDTAB
  0
TABLE
  2
LTYPE
  5
5
330
0
100
AcDbSymbolTable
 70
    11
  0
LTYPE
  5
14
330
5
100
AcDbSymbolTableRecord
100
AcDbLinetypeTableRecord
  2
ByBlock
 70
     0
  3

 72
    65
 73
     0
 40
0.0
  0
LTYPE
  5
15
330
5
100
AcDbSymbolTableRecord
100
AcDbLinetypeTableRecord
  2
ByLayer
 70
     0
  3

 72
    65
 73
     0
 40
0.0
  0
LTYPE
  5
16
330
5
100
AcDbSymbolTableRecord
100
AcDbLinetypeTableRecord
  2
Continuous
 70
     0
  3
Solid line
 72
    65
 73
     0
 40
0.0
  0
LTYPE
  5
91
330
5
100
AcDbSymbolTableRecord
100
AcDbLinetypeTableRecord
  2
ACAD_ISO03W100
 70
     0
  3
ISO dash space __    __    __    __    __    __
 72
    65
 73
     2
 40
30.0
 49
12.0
 74
     0
 49
-18.0
 74
     0
  0
LTYPE
  5
92
330
5
100
AcDbSymbolTableRecord
100
AcDbLinetypeTableRecord
  2
ACAD_ISO02W100
 70
     0
  3
ISO dash __ __ __ __ __ __ __ __ __ __ __ __ __
 72
    65
 73
     2
 40
15.0
 49
12.0
 74
     0
 49
-3.0
 74
     0
  0
LTYPE
  5
93
330
5
100
AcDbSymbolTableRecord
100
AcDbLinetypeTableRecord
  2
ACAD_ISO05W100
 70
     0
  3
ISO long-dash double-dot ____ .. ____ .. ____ .
 72
    65
 73
     6
 40
33.0
 49
24.0
 74
     0
 49
-3.0
 74
     0
 49
0.0
 74
     0
 49
-3.0
 74
     0
 49
0.0
 74
     0
 49
-3.0
 74
     0
  0
LTYPE
  5
94
330
5
100
AcDbSymbolTableRecord
100
AcDbLinetypeTableRecord
  2
ACAD_ISO07W100
 70
     0
  3
ISO dot . . . . . . . . . . . . . . . . . . . .
 72
    65
 73
     2
 40
3.0
 49
0.0
 74
     0
 49
-3.0
 74
     0
  0
LTYPE
  5
95
330
5
100
AcDbSymbolTableRecord
100
AcDbLinetypeTableRecord
  2
CENTER
 70
     0
  3
Center ____ _ ____ _ ____ _ ____ _ ____ _ ____
 72
    65
 73
     4
 40
2.0
 49
1.25
 74
     0
 49
-0.25
 74
     0
 49
0.25
 74
     0
 49
-0.25
 74
     0
  0
LTYPE
  5
96
330
5
100
AcDbSymbolTableRecord
100
AcDbLinetypeTableRecord
  2
CENTER2
 70
     0
  3
Center (.5x) ___ _ ___ _ ___ _ ___ _ ___ _ ___
 72
    65
 73
     4
 40
1.125
 49
0.75
 74
     0
 49
-0.125
 74
     0
 49
0.125
 74
     0
 49
-0.125
 74
     0
  0
LTYPE
  5
97
330
5
100
AcDbSymbolTableRecord
100
AcDbLinetypeTableRecord
  2
DASHDOT
 70
     0
  3
Dash dot __ . __ . __ . __ . __ . __ . __ . __
 72
    65
 73
     4
 40
1.0
 49
0.5
 74
     0
 49
-0.25
 74
     0
 49
0.0
 74
     0
 49
-0.25
 74
     0
  0
LTYPE
  5
98
330
5
100
AcDbSymbolTableRecord
100
AcDbLinetypeTableRecord
  2
DASHED2
 70
     0
  3
Dashed (.5x) _ _ _ _ _ _ _ _ _ _ _ _ _ _ _ _ _
 72
    65
 73
     2
 40
0.375
 49
0.25
 74
     0
 49
-0.125
 74
     0
  0
LTYPE
  5
99
330
5
100
AcDbSymbolTableRecord
100
AcDbLinetypeTableRecord
  2
DASHEDX2
 70
     0
  3
Dashed (2x) ____  ____  ____  ____  ____  ___
 72
    65
 73
     2
 40
1.5
 49
1.0
 74
     0
 49
-0.5
 74
     0
  0
LTYPE
  5
9A
330
5
100
AcDbSymbolTableRecord
100
AcDbLinetypeTableRecord
  2
HIDDEN
 70
     0
  3
Hidden __ __ __ __ __ __ __ __ __ __ __ __ __ _
 72
    65
 73
     2
 40
0.375
 49
0.25
 74
     0
 49
-0.125
 74
     0
  0
ENDTAB
  0
TABLE
  2
LAYER
  5
2
330
0
100
AcDbSymbolTable
 70
     7
  0
LAYER
  5
10
330
2
100
AcDbSymbolTableRecord
100
AcDbLayerTableRecord
  2
0
 70
     0
 62
     7
  6
Continuous
370
    -3
390
F
  0
LAYER
  5
9B
330
2
100
AcDbSymbolTableRecord
100
AcDbLayerTableRecord
  2
zuwaku
 70
     0
 62
     7
  6
HIDDEN
370
    -3
390
F
  0
LAYER
  5
AC
330
2
100
AcDbSymbolTableRecord
100
AcDbLayerTableRecord
  2
madowaku
 70
     0
 62
     4
  6
Continuous
370
    -3
390
F
  0
LAYER
  5
D7
330
2
100
AcDbSymbolTableRecord
100
AcDbLayerTableRecord
  2
center
 70
     0
 62
     3
  6
Continuous
370
    -3
390
F
  0
LAYER
  5
1BF
330
2
100
AcDbSymbolTableRecord
100
AcDbLayerTableRecord
  2
寸法
 70
     0
 62
     7
  6
Continuous
370
    -3
390
F
  0
LAYER
  5
1C0
330
2
100
AcDbSymbolTableRecord
100
AcDbLayerTableRecord
  2
詳細
 70
     0
 62
     5
  6
Continuous
370
    -3
390
F
  0
LAYER
  5
1CB
330
2
100
AcDbSymbolTableRecord
100
AcDbLayerTableRecord
  2
Defpoints
 70
     0
 62
     7
  6
Continuous
290
     0
370
    -3
390
F
  0
ENDTAB
  0
TABLE
  2
STYLE
  5
3
330
0
100
AcDbSymbolTable
 70
     3
  0
STYLE
  5
11
330
3
100
AcDbSymbolTableRecord
100
AcDbTextStyleTableRecord
  2
Standard
 70
     0
 40
0.0
 41
1.0
 50
0.0
 71
     0
 42
0.2
  3
txt
  4

  0
STYLE
  5
90
330
3
100
AcDbSymbolTableRecord
100
AcDbTextStyleTableRecord
  2

 70
     1
 40
0.0
 41
1.0
 50
0.0
 71
     0
 42
0.2
  3
ltypeshp.shx
  4

  0
STYLE
  5
1C1
330
3
100
AcDbSymbolTableRecord
100
AcDbTextStyleTableRecord
  2
寸法
 70
     0
 40
0.0
 41
0.7
 50
0.0
 71
     0
 42
0.2
  3
txt.shx
  4
bigfont.shx
  0
ENDTAB
  0
TABLE
  2
VIEW
  5
6
330
0
100
AcDbSymbolTable
 70
     0
  0
ENDTAB
  0
TABLE
  2
UCS
  5
7
330
0
100
AcDbSymbolTable
 70
     0
  0
ENDTAB
  0
TABLE
  2
APPID
  5
9
330
0
100
AcDbSymbolTable
 70
     1
  0
APPID
  5
12
330
9
100
AcDbSymbolTableRecord
100
AcDbRegAppTableRecord
  2
ACAD
 70
     0
  0
ENDTAB
  0
TABLE
  2
DIMSTYLE
  5
A
330
0
100
AcDbSymbolTable
 70
     4
100
AcDbDimStyleTable
 71
     4
340
1C9
340
27
340
209F
340
1AB0
  0
DIMSTYLE
105
27
330
A
100
AcDbSymbolTableRecord
100
AcDbDimStyleTableRecord
  2
Standard
 70
     0
340
11
  0
DIMSTYLE
105
1C9
102
{ACAD_REACTORS
330
EFC
330
F2C
330
F44
330
F5C
330
F74
330
F8C
330
FA4
330
FBC
330
FD4
330
FEC
330
1004
330
10CA
330
1547
330
1577
330
158F
330
173B
330
1976
330
19A0
330
19CA
330
19E4
330
19FC
102
}
330
A
100
AcDbSymbolTableRecord
100
AcDbDimStyleTableRecord
  2
30°矢印
 70
     0
 40
0.0
 41
300.0
 42
1000.0
 43
1000.0
 44
100.0
 73
     0
 74
     0
 77
     1
140
400.0
141
9.0
147
200.0
271
     0
272
     2
275
     1
340
1C1
341
1C3
342
1C3
  0
DIMSTYLE
105
1AB0
330
A
100
AcDbSymbolTableRecord
100
AcDbDimStyleTableRecord
  2
30゜矢印値内
 70
     0
 40
0.0
 41
300.0
 42
2000.0
 43
1000.0
 44
100.0
 73
     0
 74
     0
 77
     1
140
400.0
141
0.0
147
100.0
271
     0
272
     0
340
1C1
341
1C3
342
1C3
  0
DIMSTYLE
105
209F
102
{ACAD_REACTORS
330
20BC
102
}
330
A
100
AcDbSymbolTableRecord
100
AcDbDimStyleTableRecord
  2
30°矢印角度記入
 70
     0
 40
0.0
 41
300.0
 42
300.0
 43
1000.0
 44
100.0
 73
     0
 74
     0
 77
     1
140
400.0
141
9.0
147
200.0
271
     0
272
     0
340
1C1
341
1C3
342
1C3
  0
ENDTAB
  0
TABLE
  2
BLOCK_RECORD
  5
1
330
0
100
AcDbSymbolTable
 70
    42
  0
BLOCK_RECORD
  5
1F
330
1
100
AcDbSymbolTableRecord
100
AcDbBlockTableRecord
  2
*Model_Space
340
22
  0
BLOCK_RECORD
  5
58
330
1
100
AcDbSymbolTableRecord
100
AcDbBlockTableRecord
  2
*Paper_Space
340
59
  0
BLOCK_RECORD
  5
1C3
330
1
100
AcDbSymbolTableRecord
100
AcDbBlockTableRecord
  2
_Open30
340
0
102
{BLKREFS
331
2176
331
2175
331
2172
331
2171
331
216E
331
216D
331
216A
331
2169
331
2166
331
2165
331
2162
331
2161
331
215E
331
215D
331
215A
331
2159
331
2156
331
2155
331
2152
331
2151
331
214E
331
214D
331
2EE1
331
2EE2
331
2EEA
331
2EEB
331
2EF3
331
2EF4
331
2EFC
331
2EFD
331
2F05
331
2F06
331
2F0E
331
2F0F
331
2F17
331
2F18
331
2F20
331
2F21
331
2F29
331
2F2A
331
2F32
331
2F33
331
2F3B
331
2F3C
331
2F44
331
2F45
331
2F4D
331
2F4E
331
2F56
331
2F57
331
2F5F
331
2F60
331
2F68
331
2F69
331
2F71
331
2F72
331
2F7A
331
2F7B
331
2F83
331
2F84
331
2F8C
331
2F8D
331
2F95
331
2F96
331
2F9E
331
2F9F
331
2FA7
331
2FA8
331
2FB0
331
2FB1
331
2FB9
331
2FBA
331
2FC2
331
2FC3
331
2FCB
331
2FCC
331
2FDE
331
2FDF
331
2FE7
331
2FE8
331
2FF0
331
2FF1
331
2FF9
331
2FFA
331
3369
331
3371
331
337A
331
337B
331
3387
331
3388
331
3396
331
339B
102
}
  0
BLOCK_RECORD
  5
298
330
1
100
AcDbSymbolTableRecord
100
AcDbBlockTableRecord
  2
_ClosedBlank
340
0
  0
BLOCK_RECORD
  5
29E
330
1
100
AcDbSymbolTableRecord
100
AcDbBlockTableRecord
  2
_Dot
340
0
  0
BLOCK_RECORD
  5
EFD
330
1
100
AcDbSymbolTableRecord
100
AcDbBlockTableRecord
  2
*D3
340
0
  0
BLOCK_RECORD
  5
F2D
330
1
100
AcDbSymbolTableRecord
100
AcDbBlockTableRecord
  2
*D4
340
0
  0
BLOCK_RECORD
  5
F45
330
1
100
AcDbSymbolTableRecord
100
AcDbBlockTableRecord
  2
*D5
340
0
  0
BLOCK_RECORD
  5
F5D
330
1
100
AcDbSymbolTableRecord
100
AcDbBlockTableRecord
  2
*D6
340
0
  0
BLOCK_RECORD
  5
F75
330
1
100
AcDbSymbolTableRecord
100
AcDbBlockTableRecord
  2
*D7
340
0
  0
BLOCK_RECORD
  5
F8D
330
1
100
AcDbSymbolTableRecord
100
AcDbBlockTableRecord
  2
*D8
340
0
  0
BLOCK_RECORD
  5
FA5
330
1
100
AcDbSymbolTableRecord
100
AcDbBlockTableRecord
  2
*D9
340
0
  0
BLOCK_RECORD
  5
FBD
330
1
100
AcDbSymbolTableRecord
100
AcDbBlockTableRecord
  2
*D10
340
0
  0
BLOCK_RECORD
  5
FD5
330
1
100
AcDbSymbolTableRecord
100
AcDbBlockTableRecord
  2
*D11
340
0
  0
BLOCK_RECORD
  5
FED
330
1
100
AcDbSymbolTableRecord
100
AcDbBlockTableRecord
  2
*D12
340
0
  0
BLOCK_RECORD
  5
1005
330
1
100
AcDbSymbolTableRecord
100
AcDbBlockTableRecord
  2
*D13
340
0
  0
BLOCK_RECORD
  5
10CB
330
1
100
AcDbSymbolTableRecord
100
AcDbBlockTableRecord
  2
*D14
340
0
  0
BLOCK_RECORD
  5
1548
330
1
100
AcDbSymbolTableRecord
100
AcDbBlockTableRecord
  2
*D27
340
0
  0
BLOCK_RECORD
  5
1578
330
1
100
AcDbSymbolTableRecord
100
AcDbBlockTableRecord
  2
*D28
340
0
  0
BLOCK_RECORD
  5
1590
330
1
100
AcDbSymbolTableRecord
100
AcDbBlockTableRecord
  2
*D29
340
0
  0
BLOCK_RECORD
  5
173C
330
1
100
AcDbSymbolTableRecord
100
AcDbBlockTableRecord
  2
*D30
340
0
  0
BLOCK_RECORD
  5
1977
330
1
100
AcDbSymbolTableRecord
100
AcDbBlockTableRecord
  2
*D31
340
0
  0
BLOCK_RECORD
  5
19A1
330
1
100
AcDbSymbolTableRecord
100
AcDbBlockTableRecord
  2
*D32
340
0
  0
BLOCK_RECORD
  5
19CB
330
1
100
AcDbSymbolTableRecord
100
AcDbBlockTableRecord
  2
*D33
340
0
  0
BLOCK_RECORD
  5
19E5
330
1
100
AcDbSymbolTableRecord
100
AcDbBlockTableRecord
  2
*D34
340
0
  0
BLOCK_RECORD
  5
19FD
330
1
100
AcDbSymbolTableRecord
100
AcDbBlockTableRecord
  2
*D35
340
0
  0
BLOCK_RECORD
  5
20BD
330
1
100
AcDbSymbolTableRecord
100
AcDbBlockTableRecord
  2
*D36
340
0
  0
BLOCK_RECORD
  5
213C
330
1
100
AcDbSymbolTableRecord
100
AcDbBlockTableRecord
  2
sunpo
340
0
1001
ACAD
1000
DesignCenter Data
1002
{
1070
     1
1070
     4
1002
}
  0
BLOCK_RECORD
  5
21B4
330
1
100
AcDbSymbolTableRecord
100
AcDbBlockTableRecord
  2
_Integral
340
0
  0
ENDTAB
  0
ENDSEC
  0
SECTION
  2
BLOCKS
  0
BLOCK
  5
20
330
1F
100
AcDbEntity
  8
0
100
AcDbBlockBegin
  2
*Model_Space
 70
     0
 10
0.0
 20
0.0
 30
0.0
  3
*Model_Space
  1

  0
ENDBLK
  5
21
330
1F
100
AcDbEntity
  8
0
100
AcDbBlockEnd
  0
BLOCK
  5
5A
330
58
100
AcDbEntity
 67
     1
  8
0
100
AcDbBlockBegin
  2
*Paper_Space
 70
     0
 10
0.0
 20
0.0
 30
0.0
  3
*Paper_Space
  1

  0
ENDBLK
  5
5B
330
58
100
AcDbEntity
 67
     1
  8
0
100
AcDbBlockEnd
  0
BLOCK
  5
1C7
330
1C3
100
AcDbEntity
  8
0
100
AcDbBlockBegin
  2
_Open30
 70
     0
 10
0.0
 20
0.0
 30
0.0
  3
_Open30
  1

  0
LINE
  5
1C4
330
1C3
100
AcDbEntity
  8
0
  6
ByBlock
 62
     0
370
    -2
100
AcDbLine
 10
-1.0
 20
0.26794919
 30
0.0
 11
0.0
 21
0.0
 31
0.0
  0
LINE
  5
1C5
330
1C3
100
AcDbEntity
  8
0
  6
ByBlock
 62
     0
370
    -2
100
AcDbLine
 10
0.0
 20
0.0
 30
0.0
 11
-1.0
 21
-0.26794919
 31
0.0
  0
LINE
  5
1C6
330
1C3
100
AcDbEntity
  8
0
  6
ByBlock
 62
     0
370
    -2
100
AcDbLine
 10
0.0
 20
0.0
 30
0.0
 11
-1.0
 21
0.0
 31
0.0
  0
ENDBLK
  5
1C8
330
1C3
100
AcDbEntity
  8
0
100
AcDbBlockEnd
  0
BLOCK
  5
29C
330
298
100
AcDbEntity
  8
0
100
AcDbBlockBegin
  2
_ClosedBlank
 70
     0
 10
0.0
 20
0.0
 30
0.0
  3
_ClosedBlank
  1

  0
LINE
  5
299
330
298
100
AcDbEntity
  8
0
  6
ByBlock
 62
     0
370
    -2
100
AcDbLine
 10
-1.0
 20
0.1666666666666666
 30
0.0
 11
0.0
 21
0.0
 31
0.0
  0
LINE
  5
29A
330
298
100
AcDbEntity
  8
0
  6
ByBlock
 62
     0
370
    -2
100
AcDbLine
 10
0.0
 20
0.0
 30
0.0
 11
-1.0
 21
-0.1666666666666666
 31
0.0
  0
LINE
  5
29B
330
298
100
AcDbEntity
  8
0
  6
ByBlock
 62
     0
370
    -2
100
AcDbLine
 10
-1.0
 20
0.1666666666666666
 30
0.0
 11
-1.0
 21
-0.1666666666666666
 31
0.0
  0
ENDBLK
  5
29D
330
298
100
AcDbEntity
  8
0
100
AcDbBlockEnd
  0
BLOCK
  5
2A1
330
29E
100
AcDbEntity
  8
0
100
AcDbBlockBegin
  2
_Dot
 70
     0
 10
0.0
 20
0.0
 30
0.0
  3
_Dot
  1

  0
LWPOLYLINE
  5
29F
330
29E
100
AcDbEntity
  8
0
  6
ByBlock
 62
     0
100
AcDbPolyline
 90
        2
 70
     1
 43
0.5
 10
-0.25
 20
0.0
 42
1.0
 10
0.25
 20
0.0
 42
1.0
  0
LINE
  5
2A0
330
29E
100
AcDbEntity
  8
0
  6
ByBlock
 62
     0
370
    -2
100
AcDbLine
 10
-0.5
 20
0.0
 30
0.0
 11
-1.0
 21
0.0
 31
0.0
  0
ENDBLK
  5
2A2
330
29E
100
AcDbEntity
  8
0
100
AcDbBlockEnd
  0
BLOCK
  5
F07
330
EFD
100
AcDbEntity
  8
0
 62
     0
100
AcDbBlockBegin
  2
*D3
 70
     1
 10
0.0
 20
0.0
 30
0.0
  3
*D3
  1

  0
LINE
  5
2EDE
330
EFD
100
AcDbEntity
  8
寸法
  6
Continuous
 62
     0
370
    -2
100
AcDbLine
 10
17856.35115001543
 20
46903.78943549642
 30
0.0
 11
17856.35115001543
 21
49866.0498284347
 31
0.0
  0
LINE
  5
2EDF
330
EFD
100
AcDbEntity
  8
寸法
  6
Continuous
 62
     0
370
    -2
100
AcDbLine
 10
20856.35115001542
 20
46903.78943549642
 30
0.0
 11
20856.35115001542
 21
49866.0498284347
 31
0.0
  0
LINE
  5
2EE0
330
EFD
100
AcDbEntity
  8
寸法
  6
Continuous
 62
     0
370
    -2
100
AcDbLine
 10
18156.35115001543
 20
49766.04982843469
 30
0.0
 11
20556.35115001543
 21
49766.04982843469
 31
0.0
  0
INSERT
  5
2EE1
330
EFD
100
AcDbEntity
  8
寸法
  6
Continuous
 62
     0
370
    -2
100
AcDbBlockReference
  2
_Open30
 10
17856.35115001543
 20
49766.04982843469
 30
0.0
 41
300.0
 42
300.0
 43
300.0
 50
180.0
  0
INSERT
  5
2EE2
330
EFD
100
AcDbEntity
  8
寸法
  6
Continuous
 62
     0
370
    -2
100
AcDbBlockReference
  2
_Open30
 10
20856.35115001542
 20
49766.04982843469
 30
0.0
 41
300.0
 42
300.0
 43
300.0
  0
MTEXT
  5
2EE3
330
EFD
100
AcDbEntity
  8
寸法
  6
Continuous
 62
     0
100
AcDbMText
 10
19356.35115001542
 20
50166.04982843469
 30
0.0
 40
400.0
 41
0.0
 71
     5
 72
     1
  1
\A1;3000
  7
寸法
 73
     1
 44
1.0
1001
ACAD
1000
MTEXTBEGIN
1070
    73
1070
     1
1070
    44
1040
1.0
1070
    74
1070
     0
1000
MTEXTEND
  0
POINT
  5
2EE4
330
EFD
100
AcDbEntity
  8
Defpoints
  6
Continuous
 62
     0
100
AcDbPoint
 10
17856.35115001543
 20
45903.78943549642
 30
0.0
  0
POINT
  5
2EE5
330
EFD
100
AcDbEntity
  8
Defpoints
  6
Continuous
 62
     0
100
AcDbPoint
 10
20856.35115001542
 20
45903.78943549642
 30
0.0
  0
POINT
  5
2EE6
330
EFD
100
AcDbEntity
  8
Defpoints
  6
Continuous
 62
     0
100
AcDbPoint
 10
20856.35115001542
 20
49766.04982843469
 30
0.0
  0
ENDBLK
  5
F08
330
EFD
100
AcDbEntity
  8
0
 62
     0
100
AcDbBlockEnd
  0
BLOCK
  5
F37
330
F2D
100
AcDbEntity
  8
0
 62
     0
100
AcDbBlockBegin
  2
*D4
 70
     1
 10
0.0
 20
0.0
 30
0.0
  3
*D4
  1

  0
LINE
  5
2EE7
330
F2D
100
AcDbEntity
  8
寸法
  6
Continuous
 62
     0
370
    -2
100
AcDbLine
 10
20856.35115001542
 20
46903.78943549642
 30
0.0
 11
20856.35115001542
 21
49866.0498284347
 31
0.0
  0
LINE
  5
2EE8
330
F2D
100
AcDbEntity
  8
寸法
  6
Continuous
 62
     0
370
    -2
100
AcDbLine
 10
22356.35115001543
 20
45903.78943549642
 30
0.0
 11
22356.35115001543
 21
49866.0498284347
 31
0.0
  0
LINE
  5
2EE9
330
F2D
100
AcDbEntity
  8
寸法
  6
Continuous
 62
     0
370
    -2
100
AcDbLine
 10
21156.35115001543
 20
49766.04982843469
 30
0.0
 11
22056.35115001543
 21
49766.04982843469
 31
0.0
  0
INSERT
  5
2EEA
330
F2D
100
AcDbEntity
  8
寸法
  6
Continuous
 62
     0
370
    -2
100
AcDbBlockReference
  2
_Open30
 10
20856.35115001542
 20
49766.04982843469
 30
0.0
 41
300.0
 42
300.0
 43
300.0
 50
180.0
  0
INSERT
  5
2EEB
330
F2D
100
AcDbEntity
  8
寸法
  6
Continuous
 62
     0
370
    -2
100
AcDbBlockReference
  2
_Open30
 10
22356.35115001543
 20
49766.04982843469
 30
0.0
 41
300.0
 42
300.0
 43
300.0
  0
MTEXT
  5
2EEC
330
F2D
100
AcDbEntity
  8
寸法
  6
Continuous
 62
     0
100
AcDbMText
 10
21606.35115001543
 20
50166.04982843469
 30
0.0
 40
400.0
 41
0.0
 71
     5
 72
     1
  1
\A1;1500
  7
寸法
 73
     1
 44
1.0
1001
ACAD
1000
MTEXTBEGIN
1070
    73
1070
     1
1070
    44
1040
1.0
1070
    74
1070
     0
1000
MTEXTEND
  0
POINT
  5
2EED
330
F2D
100
AcDbEntity
  8
Defpoints
  6
Continuous
 62
     0
100
AcDbPoint
 10
20856.35115001542
 20
45903.78943549642
 30
0.0
  0
POINT
  5
2EEE
330
F2D
100
AcDbEntity
  8
Defpoints
  6
Continuous
 62
     0
100
AcDbPoint
 10
22356.35115001543
 20
44903.78943549642
 30
0.0
  0
POINT
  5
2EEF
330
F2D
100
AcDbEntity
  8
Defpoints
  6
Continuous
 62
     0
100
AcDbPoint
 10
22356.35115001543
 20
49766.04982843469
 30
0.0
  0
ENDBLK
  5
F38
330
F2D
100
AcDbEntity
  8
0
 62
     0
100
AcDbBlockEnd
  0
BLOCK
  5
F4F
330
F45
100
AcDbEntity
  8
0
 62
     0
100
AcDbBlockBegin
  2
*D5
 70
     1
 10
0.0
 20
0.0
 30
0.0
  3
*D5
  1

  0
LINE
  5
2EF0
330
F45
100
AcDbEntity
  8
寸法
  6
Continuous
 62
     0
370
    -2
100
AcDbLine
 10
22356.35115001543
 20
45903.78943549642
 30
0.0
 11
22356.35115001543
 21
49866.0498284347
 31
0.0
  0
LINE
  5
2EF1
330
F45
100
AcDbEntity
  8
寸法
  6
Continuous
 62
     0
370
    -2
100
AcDbLine
 10
23856.35115001543
 20
44903.78943549642
 30
0.0
 11
23856.35115001543
 21
49866.0498284347
 31
0.0
  0
LINE
  5
2EF2
330
F45
100
AcDbEntity
  8
寸法
  6
Continuous
 62
     0
370
    -2
100
AcDbLine
 10
22656.35115001543
 20
49766.04982843469
 30
0.0
 11
23556.35115001543
 21
49766.04982843469
 31
0.0
  0
INSERT
  5
2EF3
330
F45
100
AcDbEntity
  8
寸法
  6
Continuous
 62
     0
370
    -2
100
AcDbBlockReference
  2
_Open30
 10
22356.35115001543
 20
49766.04982843469
 30
0.0
 41
300.0
 42
300.0
 43
300.0
 50
180.0
  0
INSERT
  5
2EF4
330
F45
100
AcDbEntity
  8
寸法
  6
Continuous
 62
     0
370
    -2
100
AcDbBlockReference
  2
_Open30
 10
23856.35115001543
 20
49766.04982843469
 30
0.0
 41
300.0
 42
300.0
 43
300.0
  0
MTEXT
  5
2EF5
330
F45
100
AcDbEntity
  8
寸法
  6
Continuous
 62
     0
100
AcDbMText
 10
23106.35115001543
 20
50166.04982843469
 30
0.0
 40
400.0
 41
0.0
 71
     5
 72
     1
  1
\A1;1500
  7
寸法
 73
     1
 44
1.0
1001
ACAD
1000
MTEXTBEGIN
1070
    73
1070
     1
1070
    44
1040
1.0
1070
    74
1070
     0
1000
MTEXTEND
  0
POINT
  5
2EF6
330
F45
100
AcDbEntity
  8
Defpoints
  6
Continuous
 62
     0
100
AcDbPoint
 10
22356.35115001543
 20
44903.78943549642
 30
0.0
  0
POINT
  5
2EF7
330
F45
100
AcDbEntity
  8
Defpoints
  6
Continuous
 62
     0
100
AcDbPoint
 10
23856.35115001543
 20
43903.78943549642
 30
0.0
  0
POINT
  5
2EF8
330
F45
100
AcDbEntity
  8
Defpoints
  6
Continuous
 62
     0
100
AcDbPoint
 10
23856.35115001543
 20
49766.04982843469
 30
0.0
  0
ENDBLK
  5
F50
330
F45
100
AcDbEntity
  8
0
 62
     0
100
AcDbBlockEnd
  0
BLOCK
  5
F67
330
F5D
100
AcDbEntity
  8
0
 62
     0
100
AcDbBlockBegin
  2
*D6
 70
     1
 10
0.0
 20
0.0
 30
0.0
  3
*D6
  1

  0
LINE
  5
2EF9
330
F5D
100
AcDbEntity
  8
寸法
  6
Continuous
 62
     0
370
    -2
100
AcDbLine
 10
23856.35115001543
 20
44903.78943549642
 30
0.0
 11
23856.35115001543
 21
49866.0498284347
 31
0.0
  0
LINE
  5
2EFA
330
F5D
100
AcDbEntity
  8
寸法
  6
Continuous
 62
     0
370
    -2
100
AcDbLine
 10
25356.35115001543
 20
43903.78943549642
 30
0.0
 11
25356.35115001543
 21
49866.0498284347
 31
0.0
  0
LINE
  5
2EFB
330
F5D
100
AcDbEntity
  8
寸法
  6
Continuous
 62
     0
370
    -2
100
AcDbLine
 10
24156.35115001543
 20
49766.04982843469
 30
0.0
 11
25056.35115001543
 21
49766.04982843469
 31
0.0
  0
INSERT
  5
2EFC
330
F5D
100
AcDbEntity
  8
寸法
  6
Continuous
 62
     0
370
    -2
100
AcDbBlockReference
  2
_Open30
 10
23856.35115001543
 20
49766.04982843469
 30
0.0
 41
300.0
 42
300.0
 43
300.0
 50
180.0
  0
INSERT
  5
2EFD
330
F5D
100
AcDbEntity
  8
寸法
  6
Continuous
 62
     0
370
    -2
100
AcDbBlockReference
  2
_Open30
 10
25356.35115001543
 20
49766.04982843469
 30
0.0
 41
300.0
 42
300.0
 43
300.0
  0
MTEXT
  5
2EFE
330
F5D
100
AcDbEntity
  8
寸法
  6
Continuous
 62
     0
100
AcDbMText
 10
24606.35115001543
 20
50166.04982843469
 30
0.0
 40
400.0
 41
0.0
 71
     5
 72
     1
  1
\A1;1500
  7
寸法
 73
     1
 44
1.0
1001
ACAD
1000
MTEXTBEGIN
1070
    73
1070
     1
1070
    44
1040
1.0
1070
    74
1070
     0
1000
MTEXTEND
  0
POINT
  5
2EFF
330
F5D
100
AcDbEntity
  8
Defpoints
  6
Continuous
 62
     0
100
AcDbPoint
 10
23856.35115001543
 20
43903.78943549642
 30
0.0
  0
POINT
  5
2F00
330
F5D
100
AcDbEntity
  8
Defpoints
  6
Continuous
 62
     0
100
AcDbPoint
 10
25356.35115001543
 20
42903.78943549642
 30
0.0
  0
POINT
  5
2F01
330
F5D
100
AcDbEntity
  8
Defpoints
  6
Continuous
 62
     0
100
AcDbPoint
 10
25356.35115001543
 20
49766.04982843469
 30
0.0
  0
ENDBLK
  5
F68
330
F5D
100
AcDbEntity
  8
0
 62
     0
100
AcDbBlockEnd
  0
BLOCK
  5
F7F
330
F75
100
AcDbEntity
  8
0
 62
     0
100
AcDbBlockBegin
  2
*D7
 70
     1
 10
0.0
 20
0.0
 30
0.0
  3
*D7
  1

  0
LINE
  5
2F02
330
F75
100
AcDbEntity
  8
寸法
  6
Continuous
 62
     0
370
    -2
100
AcDbLine
 10
25356.35115001543
 20
43903.78943549642
 30
0.0
 11
25356.35115001543
 21
49866.0498284347
 31
0.0
  0
LINE
  5
2F03
330
F75
100
AcDbEntity
  8
寸法
  6
Continuous
 62
     0
370
    -2
100
AcDbLine
 10
26856.35115001543
 20
42903.78943549642
 30
0.0
 11
26856.35115001543
 21
49866.0498284347
 31
0.0
  0
LINE
  5
2F04
330
F75
100
AcDbEntity
  8
寸法
  6
Continuous
 62
     0
370
    -2
100
AcDbLine
 10
25656.35115001543
 20
49766.04982843469
 30
0.0
 11
26556.35115001543
 21
49766.04982843469
 31
0.0
  0
INSERT
  5
2F05
330
F75
100
AcDbEntity
  8
寸法
  6
Continuous
 62
     0
370
    -2
100
AcDbBlockReference
  2
_Open30
 10
25356.35115001543
 20
49766.04982843469
 30
0.0
 41
300.0
 42
300.0
 43
300.0
 50
180.0
  0
INSERT
  5
2F06
330
F75
100
AcDbEntity
  8
寸法
  6
Continuous
 62
     0
370
    -2
100
AcDbBlockReference
  2
_Open30
 10
26856.35115001543
 20
49766.04982843469
 30
0.0
 41
300.0
 42
300.0
 43
300.0
  0
MTEXT
  5
2F07
330
F75
100
AcDbEntity
  8
寸法
  6
Continuous
 62
     0
100
AcDbMText
 10
26106.35115001543
 20
50166.04982843469
 30
0.0
 40
400.0
 41
0.0
 71
     5
 72
     1
  1
\A1;1500
  7
寸法
 73
     1
 44
1.0
1001
ACAD
1000
MTEXTBEGIN
1070
    73
1070
     1
1070
    44
1040
1.0
1070
    74
1070
     0
1000
MTEXTEND
  0
POINT
  5
2F08
330
F75
100
AcDbEntity
  8
Defpoints
  6
Continuous
 62
     0
100
AcDbPoint
 10
25356.35115001543
 20
42903.78943549642
 30
0.0
  0
POINT
  5
2F09
330
F75
100
AcDbEntity
  8
Defpoints
  6
Continuous
 62
     0
100
AcDbPoint
 10
26856.35115001543
 20
41903.78943549642
 30
0.0
  0
POINT
  5
2F0A
330
F75
100
AcDbEntity
  8
Defpoints
  6
Continuous
 62
     0
100
AcDbPoint
 10
26856.35115001543
 20
49766.04982843469
 30
0.0
  0
ENDBLK
  5
F80
330
F75
100
AcDbEntity
  8
0
 62
     0
100
AcDbBlockEnd
  0
BLOCK
  5
F97
330
F8D
100
AcDbEntity
  8
0
 62
     0
100
AcDbBlockBegin
  2
*D8
 70
     1
 10
0.0
 20
0.0
 30
0.0
  3
*D8
  1

  0
LINE
  5
2F0B
330
F8D
100
AcDbEntity
  8
寸法
  6
Continuous
 62
     0
370
    -2
100
AcDbLine
 10
26856.35115001543
 20
42903.78943549642
 30
0.0
 11
26856.35115001543
 21
49866.0498284347
 31
0.0
  0
LINE
  5
2F0C
330
F8D
100
AcDbEntity
  8
寸法
  6
Continuous
 62
     0
370
    -2
100
AcDbLine
 10
28356.35115001543
 20
41903.78943549642
 30
0.0
 11
28356.35115001543
 21
49866.0498284347
 31
0.0
  0
LINE
  5
2F0D
330
F8D
100
AcDbEntity
  8
寸法
  6
Continuous
 62
     0
370
    -2
100
AcDbLine
 10
27156.35115001543
 20
49766.04982843469
 30
0.0
 11
28056.35115001543
 21
49766.04982843469
 31
0.0
  0
INSERT
  5
2F0E
330
F8D
100
AcDbEntity
  8
寸法
  6
Continuous
 62
     0
370
    -2
100
AcDbBlockReference
  2
_Open30
 10
26856.35115001543
 20
49766.04982843469
 30
0.0
 41
300.0
 42
300.0
 43
300.0
 50
180.0
  0
INSERT
  5
2F0F
330
F8D
100
AcDbEntity
  8
寸法
  6
Continuous
 62
     0
370
    -2
100
AcDbBlockReference
  2
_Open30
 10
28356.35115001543
 20
49766.04982843469
 30
0.0
 41
300.0
 42
300.0
 43
300.0
  0
MTEXT
  5
2F10
330
F8D
100
AcDbEntity
  8
寸法
  6
Continuous
 62
     0
100
AcDbMText
 10
27606.35115001543
 20
50166.04982843469
 30
0.0
 40
400.0
 41
0.0
 71
     5
 72
     1
  1
\A1;1500
  7
寸法
 73
     1
 44
1.0
1001
ACAD
1000
MTEXTBEGIN
1070
    73
1070
     1
1070
    44
1040
1.0
1070
    74
1070
     0
1000
MTEXTEND
  0
POINT
  5
2F11
330
F8D
100
AcDbEntity
  8
Defpoints
  6
Continuous
 62
     0
100
AcDbPoint
 10
26856.35115001543
 20
41903.78943549642
 30
0.0
  0
POINT
  5
2F12
330
F8D
100
AcDbEntity
  8
Defpoints
  6
Continuous
 62
     0
100
AcDbPoint
 10
28356.35115001543
 20
40903.78943549642
 30
0.0
  0
POINT
  5
2F13
330
F8D
100
AcDbEntity
  8
Defpoints
  6
Continuous
 62
     0
100
AcDbPoint
 10
28356.35115001543
 20
49766.04982843469
 30
0.0
  0
ENDBLK
  5
F98
330
F8D
100
AcDbEntity
  8
0
 62
     0
100
AcDbBlockEnd
  0
BLOCK
  5
FAF
330
FA5
100
AcDbEntity
  8
0
 62
     0
100
AcDbBlockBegin
  2
*D9
 70
     1
 10
0.0
 20
0.0
 30
0.0
  3
*D9
  1

  0
LINE
  5
2F14
330
FA5
100
AcDbEntity
  8
寸法
  6
Continuous
 62
     0
370
    -2
100
AcDbLine
 10
28356.35115001543
 20
41903.78943549642
 30
0.0
 11
28356.35115001543
 21
49866.0498284347
 31
0.0
  0
LINE
  5
2F15
330
FA5
100
AcDbEntity
  8
寸法
  6
Continuous
 62
     0
370
    -2
100
AcDbLine
 10
29856.35115001543
 20
40903.78943549642
 30
0.0
 11
29856.35115001543
 21
49866.0498284347
 31
0.0
  0
LINE
  5
2F16
330
FA5
100
AcDbEntity
  8
寸法
  6
Continuous
 62
     0
370
    -2
100
AcDbLine
 10
28656.35115001543
 20
49766.04982843469
 30
0.0
 11
29556.35115001543
 21
49766.04982843469
 31
0.0
  0
INSERT
  5
2F17
330
FA5
100
AcDbEntity
  8
寸法
  6
Continuous
 62
     0
370
    -2
100
AcDbBlockReference
  2
_Open30
 10
28356.35115001543
 20
49766.04982843469
 30
0.0
 41
300.0
 42
300.0
 43
300.0
 50
180.0
  0
INSERT
  5
2F18
330
FA5
100
AcDbEntity
  8
寸法
  6
Continuous
 62
     0
370
    -2
100
AcDbBlockReference
  2
_Open30
 10
29856.35115001543
 20
49766.04982843469
 30
0.0
 41
300.0
 42
300.0
 43
300.0
  0
MTEXT
  5
2F19
330
FA5
100
AcDbEntity
  8
寸法
  6
Continuous
 62
     0
100
AcDbMText
 10
29106.35115001543
 20
50166.04982843469
 30
0.0
 40
400.0
 41
0.0
 71
     5
 72
     1
  1
\A1;1500
  7
寸法
 73
     1
 44
1.0
1001
ACAD
1000
MTEXTBEGIN
1070
    73
1070
     1
1070
    44
1040
1.0
1070
    74
1070
     0
1000
MTEXTEND
  0
POINT
  5
2F1A
330
FA5
100
AcDbEntity
  8
Defpoints
  6
Continuous
 62
     0
100
AcDbPoint
 10
28356.35115001543
 20
40903.78943549642
 30
0.0
  0
POINT
  5
2F1B
330
FA5
100
AcDbEntity
  8
Defpoints
  6
Continuous
 62
     0
100
AcDbPoint
 10
29856.35115001543
 20
39903.78943549643
 30
0.0
  0
POINT
  5
2F1C
330
FA5
100
AcDbEntity
  8
Defpoints
  6
Continuous
 62
     0
100
AcDbPoint
 10
29856.35115001543
 20
49766.04982843469
 30
0.0
  0
ENDBLK
  5
FB0
330
FA5
100
AcDbEntity
  8
0
 62
     0
100
AcDbBlockEnd
  0
BLOCK
  5
FC7
330
FBD
100
AcDbEntity
  8
0
 62
     0
100
AcDbBlockBegin
  2
*D10
 70
     1
 10
0.0
 20
0.0
 30
0.0
  3
*D10
  1

  0
LINE
  5
2F1D
330
FBD
100
AcDbEntity
  8
寸法
  6
Continuous
 62
     0
370
    -2
100
AcDbLine
 10
29856.35115001543
 20
40903.78943549642
 30
0.0
 11
29856.35115001543
 21
49866.0498284347
 31
0.0
  0
LINE
  5
2F1E
330
FBD
100
AcDbEntity
  8
寸法
  6
Continuous
 62
     0
370
    -2
100
AcDbLine
 10
31356.35115001543
 20
39903.78943549643
 30
0.0
 11
31356.35115001543
 21
49866.0498284347
 31
0.0
  0
LINE
  5
2F1F
330
FBD
100
AcDbEntity
  8
寸法
  6
Continuous
 62
     0
370
    -2
100
AcDbLine
 10
30156.35115001543
 20
49766.04982843469
 30
0.0
 11
31056.35115001543
 21
49766.04982843469
 31
0.0
  0
INSERT
  5
2F20
330
FBD
100
AcDbEntity
  8
寸法
  6
Continuous
 62
     0
370
    -2
100
AcDbBlockReference
  2
_Open30
 10
29856.35115001543
 20
49766.04982843469
 30
0.0
 41
300.0
 42
300.0
 43
300.0
 50
180.0
  0
INSERT
  5
2F21
330
FBD
100
AcDbEntity
  8
寸法
  6
Continuous
 62
     0
370
    -2
100
AcDbBlockReference
  2
_Open30
 10
31356.35115001543
 20
49766.04982843469
 30
0.0
 41
300.0
 42
300.0
 43
300.0
  0
MTEXT
  5
2F22
330
FBD
100
AcDbEntity
  8
寸法
  6
Continuous
 62
     0
100
AcDbMText
 10
30606.35115001543
 20
50166.04982843469
 30
0.0
 40
400.0
 41
0.0
 71
     5
 72
     1
  1
\A1;1500
  7
寸法
 73
     1
 44
1.0
1001
ACAD
1000
MTEXTBEGIN
1070
    73
1070
     1
1070
    44
1040
1.0
1070
    74
1070
     0
1000
MTEXTEND
  0
POINT
  5
2F23
330
FBD
100
AcDbEntity
  8
Defpoints
  6
Continuous
 62
     0
100
AcDbPoint
 10
29856.35115001543
 20
39903.78943549643
 30
0.0
  0
POINT
  5
2F24
330
FBD
100
AcDbEntity
  8
Defpoints
  6
Continuous
 62
     0
100
AcDbPoint
 10
31356.35115001543
 20
38903.78943549642
 30
0.0
  0
POINT
  5
2F25
330
FBD
100
AcDbEntity
  8
Defpoints
  6
Continuous
 62
     0
100
AcDbPoint
 10
31356.35115001543
 20
49766.04982843469
 30
0.0
  0
ENDBLK
  5
FC8
330
FBD
100
AcDbEntity
  8
0
 62
     0
100
AcDbBlockEnd
  0
BLOCK
  5
FDF
330
FD5
100
AcDbEntity
  8
0
 62
     0
100
AcDbBlockBegin
  2
*D11
 70
     1
 10
0.0
 20
0.0
 30
0.0
  3
*D11
  1

  0
LINE
  5
2F26
330
FD5
100
AcDbEntity
  8
寸法
  6
Continuous
 62
     0
370
    -2
100
AcDbLine
 10
31356.35115001543
 20
39903.78943549643
 30
0.0
 11
31356.35115001543
 21
49866.0498284347
 31
0.0
  0
LINE
  5
2F27
330
FD5
100
AcDbEntity
  8
寸法
  6
Continuous
 62
     0
370
    -2
100
AcDbLine
 10
32856.35115001543
 20
38903.78943549642
 30
0.0
 11
32856.35115001543
 21
49866.0498284347
 31
0.0
  0
LINE
  5
2F28
330
FD5
100
AcDbEntity
  8
寸法
  6
Continuous
 62
     0
370
    -2
100
AcDbLine
 10
31656.35115001543
 20
49766.04982843469
 30
0.0
 11
32556.35115001543
 21
49766.04982843469
 31
0.0
  0
INSERT
  5
2F29
330
FD5
100
AcDbEntity
  8
寸法
  6
Continuous
 62
     0
370
    -2
100
AcDbBlockReference
  2
_Open30
 10
31356.35115001543
 20
49766.04982843469
 30
0.0
 41
300.0
 42
300.0
 43
300.0
 50
180.0
  0
INSERT
  5
2F2A
330
FD5
100
AcDbEntity
  8
寸法
  6
Continuous
 62
     0
370
    -2
100
AcDbBlockReference
  2
_Open30
 10
32856.35115001543
 20
49766.04982843469
 30
0.0
 41
300.0
 42
300.0
 43
300.0
  0
MTEXT
  5
2F2B
330
FD5
100
AcDbEntity
  8
寸法
  6
Continuous
 62
     0
100
AcDbMText
 10
32106.35115001543
 20
50166.04982843469
 30
0.0
 40
400.0
 41
0.0
 71
     5
 72
     1
  1
\A1;1500
  7
寸法
 73
     1
 44
1.0
1001
ACAD
1000
MTEXTBEGIN
1070
    73
1070
     1
1070
    44
1040
1.0
1070
    74
1070
     0
1000
MTEXTEND
  0
POINT
  5
2F2C
330
FD5
100
AcDbEntity
  8
Defpoints
  6
Continuous
 62
     0
100
AcDbPoint
 10
31356.35115001543
 20
38903.78943549642
 30
0.0
  0
POINT
  5
2F2D
330
FD5
100
AcDbEntity
  8
Defpoints
  6
Continuous
 62
     0
100
AcDbPoint
 10
32856.35115001543
 20
37903.78943549642
 30
0.0
  0
POINT
  5
2F2E
330
FD5
100
AcDbEntity
  8
Defpoints
  6
Continuous
 62
     0
100
AcDbPoint
 10
32856.35115001543
 20
49766.04982843469
 30
0.0
  0
ENDBLK
  5
FE0
330
FD5
100
AcDbEntity
  8
0
 62
     0
100
AcDbBlockEnd
  0
BLOCK
  5
FF7
330
FED
100
AcDbEntity
  8
0
 62
     0
100
AcDbBlockBegin
  2
*D12
 70
     1
 10
0.0
 20
0.0
 30
0.0
  3
*D12
  1

  0
LINE
  5
2F2F
330
FED
100
AcDbEntity
  8
寸法
  6
Continuous
 62
     0
370
    -2
100
AcDbLine
 10
32856.35115001543
 20
38903.78943549642
 30
0.0
 11
32856.35115001543
 21
49866.0498284347
 31
0.0
  0
LINE
  5
2F30
330
FED
100
AcDbEntity
  8
寸法
  6
Continuous
 62
     0
370
    -2
100
AcDbLine
 10
34356.35115001543
 20
37903.78943549642
 30
0.0
 11
34356.35115001543
 21
49866.0498284347
 31
0.0
  0
LINE
  5
2F31
330
FED
100
AcDbEntity
  8
寸法
  6
Continuous
 62
     0
370
    -2
100
AcDbLine
 10
33156.35115001543
 20
49766.04982843469
 30
0.0
 11
34056.35115001543
 21
49766.04982843469
 31
0.0
  0
INSERT
  5
2F32
330
FED
100
AcDbEntity
  8
寸法
  6
Continuous
 62
     0
370
    -2
100
AcDbBlockReference
  2
_Open30
 10
32856.35115001543
 20
49766.04982843469
 30
0.0
 41
300.0
 42
300.0
 43
300.0
 50
180.0
  0
INSERT
  5
2F33
330
FED
100
AcDbEntity
  8
寸法
  6
Continuous
 62
     0
370
    -2
100
AcDbBlockReference
  2
_Open30
 10
34356.35115001543
 20
49766.04982843469
 30
0.0
 41
300.0
 42
300.0
 43
300.0
  0
MTEXT
  5
2F34
330
FED
100
AcDbEntity
  8
寸法
  6
Continuous
 62
     0
100
AcDbMText
 10
33606.35115001543
 20
50166.04982843469
 30
0.0
 40
400.0
 41
0.0
 71
     5
 72
     1
  1
\A1;1500
  7
寸法
 73
     1
 44
1.0
1001
ACAD
1000
MTEXTBEGIN
1070
    73
1070
     1
1070
    44
1040
1.0
1070
    74
1070
     0
1000
MTEXTEND
  0
POINT
  5
2F35
330
FED
100
AcDbEntity
  8
Defpoints
  6
Continuous
 62
     0
100
AcDbPoint
 10
32856.35115001543
 20
37903.78943549642
 30
0.0
  0
POINT
  5
2F36
330
FED
100
AcDbEntity
  8
Defpoints
  6
Continuous
 62
     0
100
AcDbPoint
 10
34356.35115001543
 20
36903.78943549642
 30
0.0
  0
POINT
  5
2F37
330
FED
100
AcDbEntity
  8
Defpoints
  6
Continuous
 62
     0
100
AcDbPoint
 10
34356.35115001543
 20
49766.04982843469
 30
0.0
  0
ENDBLK
  5
FF8
330
FED
100
AcDbEntity
  8
0
 62
     0
100
AcDbBlockEnd
  0
BLOCK
  5
100F
330
1005
100
AcDbEntity
  8
0
 62
     0
100
AcDbBlockBegin
  2
*D13
 70
     1
 10
0.0
 20
0.0
 30
0.0
  3
*D13
  1

  0
LINE
  5
2F38
330
1005
100
AcDbEntity
  8
寸法
  6
Continuous
 62
     0
370
    -2
100
AcDbLine
 10
34356.35115001543
 20
37903.78943549642
 30
0.0
 11
34356.35115001543
 21
49866.0498284347
 31
0.0
  0
LINE
  5
2F39
330
1005
100
AcDbEntity
  8
寸法
  6
Continuous
 62
     0
370
    -2
100
AcDbLine
 10
35856.35115001543
 20
36903.78943549642
 30
0.0
 11
35856.35115001543
 21
49866.0498284347
 31
0.0
  0
LINE
  5
2F3A
330
1005
100
AcDbEntity
  8
寸法
  6
Continuous
 62
     0
370
    -2
100
AcDbLine
 10
34656.35115001543
 20
49766.04982843469
 30
0.0
 11
35556.35115001543
 21
49766.04982843469
 31
0.0
  0
INSERT
  5
2F3B
330
1005
100
AcDbEntity
  8
寸法
  6
Continuous
 62
     0
370
    -2
100
AcDbBlockReference
  2
_Open30
 10
34356.35115001543
 20
49766.04982843469
 30
0.0
 41
300.0
 42
300.0
 43
300.0
 50
180.0
  0
INSERT
  5
2F3C
330
1005
100
AcDbEntity
  8
寸法
  6
Continuous
 62
     0
370
    -2
100
AcDbBlockReference
  2
_Open30
 10
35856.35115001543
 20
49766.04982843469
 30
0.0
 41
300.0
 42
300.0
 43
300.0
  0
MTEXT
  5
2F3D
330
1005
100
AcDbEntity
  8
寸法
  6
Continuous
 62
     0
100
AcDbMText
 10
35106.35115001543
 20
50166.04982843469
 30
0.0
 40
400.0
 41
0.0
 71
     5
 72
     1
  1
\A1;1500
  7
寸法
 73
     1
 44
1.0
1001
ACAD
1000
MTEXTBEGIN
1070
    73
1070
     1
1070
    44
1040
1.0
1070
    74
1070
     0
1000
MTEXTEND
  0
POINT
  5
2F3E
330
1005
100
AcDbEntity
  8
Defpoints
  6
Continuous
 62
     0
100
AcDbPoint
 10
34356.35115001543
 20
36903.78943549642
 30
0.0
  0
POINT
  5
2F3F
330
1005
100
AcDbEntity
  8
Defpoints
  6
Continuous
 62
     0
100
AcDbPoint
 10
35856.35115001543
 20
35903.78943549642
 30
0.0
  0
POINT
  5
2F40
330
1005
100
AcDbEntity
  8
Defpoints
  6
Continuous
 62
     0
100
AcDbPoint
 10
35856.35115001543
 20
49766.04982843469
 30
0.0
  0
ENDBLK
  5
1010
330
1005
100
AcDbEntity
  8
0
 62
     0
100
AcDbBlockEnd
  0
BLOCK
  5
10D5
330
10CB
100
AcDbEntity
  8
0
 62
     0
100
AcDbBlockBegin
  2
*D14
 70
     1
 10
0.0
 20
0.0
 30
0.0
  3
*D14
  1

  0
LINE
  5
2F41
330
10CB
100
AcDbEntity
  8
寸法
  6
Continuous
 62
     0
370
    -2
100
AcDbLine
 10
6209.861812134215
 20
46903.78943549642
 30
0.0
 11
6209.861812134215
 21
49866.0498284347
 31
0.0
  0
LINE
  5
2F42
330
10CB
100
AcDbEntity
  8
寸法
  6
Continuous
 62
     0
370
    -2
100
AcDbLine
 10
9209.861812134215
 20
46903.78943549642
 30
0.0
 11
9209.861812134215
 21
49866.0498284347
 31
0.0
  0
LINE
  5
2F43
330
10CB
100
AcDbEntity
  8
寸法
  6
Continuous
 62
     0
370
    -2
100
AcDbLine
 10
6509.861812134215
 20
49766.04982843469
 30
0.0
 11
8909.861812134215
 21
49766.04982843469
 31
0.0
  0
INSERT
  5
2F44
330
10CB
100
AcDbEntity
  8
寸法
  6
Continuous
 62
     0
370
    -2
100
AcDbBlockReference
  2
_Open30
 10
6209.861812134215
 20
49766.04982843469
 30
0.0
 41
300.0
 42
300.0
 43
300.0
 50
180.0
  0
INSERT
  5
2F45
330
10CB
100
AcDbEntity
  8
寸法
  6
Continuous
 62
     0
370
    -2
100
AcDbBlockReference
  2
_Open30
 10
9209.861812134215
 20
49766.04982843469
 30
0.0
 41
300.0
 42
300.0
 43
300.0
  0
MTEXT
  5
2F46
330
10CB
100
AcDbEntity
  8
寸法
  6
Continuous
 62
     0
100
AcDbMText
 10
7709.861812134215
 20
50166.04982843469
 30
0.0
 40
400.0
 41
0.0
 71
     5
 72
     1
  1
\A1;3000
  7
寸法
 73
     1
 44
1.0
1001
ACAD
1000
MTEXTBEGIN
1070
    73
1070
     1
1070
    44
1040
1.0
1070
    74
1070
     0
1000
MTEXTEND
  0
POINT
  5
2F47
330
10CB
100
AcDbEntity
  8
Defpoints
  6
Continuous
 62
     0
100
AcDbPoint
 10
6209.861812134215
 20
45903.78943549642
 30
0.0
  0
POINT
  5
2F48
330
10CB
100
AcDbEntity
  8
Defpoints
  6
Continuous
 62
     0
100
AcDbPoint
 10
9209.861812134215
 20
45903.78943549642
 30
0.0
  0
POINT
  5
2F49
330
10CB
100
AcDbEntity
  8
Defpoints
  6
Continuous
 62
     0
100
AcDbPoint
 10
9209.861812134215
 20
49766.04982843469
 30
0.0
  0
ENDBLK
  5
10D6
330
10CB
100
AcDbEntity
  8
0
 62
     0
100
AcDbBlockEnd
  0
BLOCK
  5
1552
330
1548
100
AcDbEntity
  8
0
 62
     0
100
AcDbBlockBegin
  2
*D27
 70
     1
 10
0.0
 20
0.0
 30
0.0
  3
*D27
  1

  0
LINE
  5
2FB6
330
1548
100
AcDbEntity
  8
寸法
  6
Continuous
 62
     0
370
    -2
100
AcDbLine
 10
10491.83782483623
 20
25165.9416122921
 30
0.0
 11
10491.83782483623
 21
27543.86339397843
 31
0.0
  0
LINE
  5
2FB7
330
1548
100
AcDbEntity
  8
寸法
  6
Continuous
 62
     0
370
    -2
100
AcDbLine
 10
20491.83782483622
 20
25165.9416122921
 30
0.0
 11
20491.83782483622
 21
27543.86339397843
 31
0.0
  0
LINE
  5
2FB8
330
1548
100
AcDbEntity
  8
寸法
  6
Continuous
 62
     0
370
    -2
100
AcDbLine
 10
10791.83782483623
 20
27443.86339397844
 30
0.0
 11
20191.83782483622
 21
27443.86339397844
 31
0.0
  0
INSERT
  5
2FB9
330
1548
100
AcDbEntity
  8
寸法
  6
Continuous
 62
     0
370
    -2
100
AcDbBlockReference
  2
_Open30
 10
10491.83782483623
 20
27443.86339397844
 30
0.0
 41
300.0
 42
300.0
 43
300.0
 50
180.0
  0
INSERT
  5
2FBA
330
1548
100
AcDbEntity
  8
寸法
  6
Continuous
 62
     0
370
    -2
100
AcDbBlockReference
  2
_Open30
 10
20491.83782483622
 20
27443.86339397844
 30
0.0
 41
300.0
 42
300.0
 43
300.0
  0
MTEXT
  5
2FBB
330
1548
100
AcDbEntity
  8
寸法
  6
Continuous
 62
     0
100
AcDbMText
 10
15491.83782483622
 20
27843.86339397844
 30
0.0
 40
400.0
 41
0.0
 71
     5
 72
     1
  1
\A1;10000
  7
寸法
 73
     1
 44
1.0
1001
ACAD
1000
MTEXTBEGIN
1070
    73
1070
     1
1070
    44
1040
1.0
1070
    74
1070
     0
1000
MTEXTEND
  0
POINT
  5
2FBC
330
1548
100
AcDbEntity
  8
Defpoints
  6
Continuous
 62
     0
100
AcDbPoint
 10
10491.83782483623
 20
24165.9416122921
 30
0.0
  0
POINT
  5
2FBD
330
1548
100
AcDbEntity
  8
Defpoints
  6
Continuous
 62
     0
100
AcDbPoint
 10
20491.83782483622
 20
24165.9416122921
 30
0.0
  0
POINT
  5
2FBE
330
1548
100
AcDbEntity
  8
Defpoints
  6
Continuous
 62
     0
100
AcDbPoint
 10
20491.83782483622
 20
27443.86339397844
 30
0.0
  0
ENDBLK
  5
1553
330
1548
100
AcDbEntity
  8
0
 62
     0
100
AcDbBlockEnd
  0
BLOCK
  5
1582
330
1578
100
AcDbEntity
  8
0
 62
     0
100
AcDbBlockBegin
  2
*D28
 70
     1
 10
0.0
 20
0.0
 30
0.0
  3
*D28
  1

  0
LINE
  5
2FBF
330
1578
100
AcDbEntity
  8
寸法
  6
Continuous
 62
     0
370
    -2
100
AcDbLine
 10
10491.83782483622
 20
13165.94161229209
 30
0.0
 11
10491.83782483622
 21
11649.1699983235
 31
0.0
  0
LINE
  5
2FC0
330
1578
100
AcDbEntity
  8
寸法
  6
Continuous
 62
     0
370
    -2
100
AcDbLine
 10
15491.83782483622
 20
13165.94161229209
 30
0.0
 11
15491.83782483622
 21
11649.1699983235
 31
0.0
  0
LINE
  5
2FC1
330
1578
100
AcDbEntity
  8
寸法
  6
Continuous
 62
     0
370
    -2
100
AcDbLine
 10
10791.83782483623
 20
11749.1699983235
 30
0.0
 11
15191.83782483622
 21
11749.1699983235
 31
0.0
  0
INSERT
  5
2FC2
330
1578
100
AcDbEntity
  8
寸法
  6
Continuous
 62
     0
370
    -2
100
AcDbBlockReference
  2
_Open30
 10
10491.83782483622
 20
11749.1699983235
 30
0.0
 41
300.0
 42
300.0
 43
300.0
 50
180.0
  0
INSERT
  5
2FC3
330
1578
100
AcDbEntity
  8
寸法
  6
Continuous
 62
     0
370
    -2
100
AcDbBlockReference
  2
_Open30
 10
15491.83782483622
 20
11749.1699983235
 30
0.0
 41
300.0
 42
300.0
 43
300.0
  0
MTEXT
  5
2FC4
330
1578
100
AcDbEntity
  8
寸法
  6
Continuous
 62
     0
100
AcDbMText
 10
12991.83782483622
 20
12149.1699983235
 30
0.0
 40
400.0
 41
0.0
 71
     5
 72
     1
  1
\A1;5000
  7
寸法
 73
     1
 44
1.0
1001
ACAD
1000
MTEXTBEGIN
1070
    73
1070
     1
1070
    44
1040
1.0
1070
    74
1070
     0
1000
MTEXTEND
  0
POINT
  5
2FC5
330
1578
100
AcDbEntity
  8
Defpoints
  6
Continuous
 62
     0
100
AcDbPoint
 10
10491.83782483622
 20
14165.94161229209
 30
0.0
  0
POINT
  5
2FC6
330
1578
100
AcDbEntity
  8
Defpoints
  6
Continuous
 62
     0
100
AcDbPoint
 10
15491.83782483622
 20
14165.94161229209
 30
0.0
  0
POINT
  5
2FC7
330
1578
100
AcDbEntity
  8
Defpoints
  6
Continuous
 62
     0
100
AcDbPoint
 10
15491.83782483622
 20
11749.1699983235
 30
0.0
  0
ENDBLK
  5
1583
330
1578
100
AcDbEntity
  8
0
 62
     0
100
AcDbBlockEnd
  0
BLOCK
  5
159A
330
1590
100
AcDbEntity
  8
0
 62
     0
100
AcDbBlockBegin
  2
*D29
 70
     1
 10
0.0
 20
0.0
 30
0.0
  3
*D29
  1

  0
LINE
  5
2FC8
330
1590
100
AcDbEntity
  8
寸法
  6
Continuous
 62
     0
370
    -2
100
AcDbLine
 10
15491.83782483622
 20
13165.94161229209
 30
0.0
 11
15491.83782483622
 21
11649.1699983235
 31
0.0
  0
LINE
  5
2FC9
330
1590
100
AcDbEntity
  8
寸法
  6
Continuous
 62
     0
370
    -2
100
AcDbLine
 10
20491.83782483622
 20
20165.94161229212
 30
0.0
 11
20491.83782483622
 21
11649.1699983235
 31
0.0
  0
LINE
  5
2FCA
330
1590
100
AcDbEntity
  8
寸法
  6
Continuous
 62
     0
370
    -2
100
AcDbLine
 10
15791.83782483622
 20
11749.1699983235
 30
0.0
 11
20191.83782483622
 21
11749.1699983235
 31
0.0
  0
INSERT
  5
2FCB
330
1590
100
AcDbEntity
  8
寸法
  6
Continuous
 62
     0
370
    -2
100
AcDbBlockReference
  2
_Open30
 10
15491.83782483622
 20
11749.1699983235
 30
0.0
 41
300.0
 42
300.0
 43
300.0
 50
180.0
  0
INSERT
  5
2FCC
330
1590
100
AcDbEntity
  8
寸法
  6
Continuous
 62
     0
370
    -2
100
AcDbBlockReference
  2
_Open30
 10
20491.83782483622
 20
11749.1699983235
 30
0.0
 41
300.0
 42
300.0
 43
300.0
  0
MTEXT
  5
2FCD
330
1590
100
AcDbEntity
  8
寸法
  6
Continuous
 62
     0
100
AcDbMText
 10
17991.83782483622
 20
12149.1699983235
 30
0.0
 40
400.0
 41
0.0
 71
     5
 72
     1
  1
\A1;5000
  7
寸法
 73
     1
 44
1.0
1001
ACAD
1000
MTEXTBEGIN
1070
    73
1070
     1
1070
    44
1040
1.0
1070
    74
1070
     0
1000
MTEXTEND
  0
POINT
  5
2FCE
330
1590
100
AcDbEntity
  8
Defpoints
  6
Continuous
 62
     0
100
AcDbPoint
 10
15491.83782483622
 20
14165.94161229209
 30
0.0
  0
POINT
  5
2FCF
330
1590
100
AcDbEntity
  8
Defpoints
  6
Continuous
 62
     0
100
AcDbPoint
 10
20491.83782483622
 20
21165.94161229212
 30
0.0
  0
POINT
  5
2FD0
330
1590
100
AcDbEntity
  8
Defpoints
  6
Continuous
 62
     0
100
AcDbPoint
 10
20491.83782483622
 20
11749.1699983235
 30
0.0
  0
ENDBLK
  5
159B
330
1590
100
AcDbEntity
  8
0
 62
     0
100
AcDbBlockEnd
  0
BLOCK
  5
1742
330
173C
100
AcDbEntity
  8
0
100
AcDbBlockBegin
  2
*D30
 70
     1
 10
0.0
 20
0.0
 30
0.0
  3
*D30
  1

  0
LINE
  5
3394
330
173C
100
AcDbEntity
  8
寸法
  6
Continuous
 62
     0
370
    -2
100
AcDbLine
 10
40782.42593220956
 20
22136.40741414389
 30
0.0
 11
43265.7592655429
 21
22136.40741414391
 31
0.0
  0
MTEXT
  5
3395
330
173C
100
AcDbEntity
  8
寸法
  6
Continuous
 62
     0
100
AcDbMText
 10
41565.75926554289
 20
22536.40741414389
 30
0.0
 40
400.0
 41
0.0
 71
     5
 72
     1
  1
\A1;R2000
  7
寸法
 73
     1
 44
1.0
1001
ACAD
1000
MTEXTBEGIN
1070
    73
1070
     1
1070
    44
1040
1.0
1070
    74
1070
     0
1000
MTEXTEND
  0
INSERT
  5
3396
330
173C
100
AcDbEntity
  8
寸法
  6
Continuous
 62
     0
370
    -2
100
AcDbBlockReference
  2
_Open30
 10
43565.75926554289
 20
22136.40741414391
 30
0.0
 41
300.0
 42
300.0
 43
300.0
 50
0.0000000000005089
  0
POINT
  5
3397
330
173C
100
AcDbEntity
  8
Defpoints
  6
Continuous
 62
     0
100
AcDbPoint
 10
43565.75926554289
 20
22136.40741414391
 30
0.0
  0
POINT
  5
3398
330
173C
100
AcDbEntity
  8
Defpoints
  6
Continuous
 62
     0
100
AcDbPoint
 10
41565.7592655429
 20
22136.40741414389
 30
0.0
  0
ENDBLK
  5
1743
330
173C
100
AcDbEntity
  8
0
100
AcDbBlockEnd
  0
BLOCK
  5
197D
330
1977
100
AcDbEntity
  8
0
100
AcDbBlockBegin
  2
*D31
 70
     1
 10
0.0
 20
0.0
 30
0.0
  3
*D31
  1

  0
LINE
  5
3399
330
1977
100
AcDbEntity
  8
寸法
  6
Continuous
 62
     0
370
    -2
100
AcDbLine
 10
46858.83074137244
 20
22241.42261483896
 30
0.0
 11
48717.57629795527
 21
22069.63961123252
 31
0.0
  0
MTEXT
  5
339A
330
1977
100
AcDbEntity
  8
寸法
  6
Continuous
 62
     0
100
AcDbMText
 10
47675.65068106839
 20
22567.63772366472
 30
0.0
 40
400.0
 41
0.0
 71
     5
 72
     1
  1
\A1;\U+22054000
  7
寸法
 11
0.9957565481693702
 21
-0.0920266090748799
 31
0.0
 73
     1
 44
1.0
1001
ACAD
1000
MTEXTBEGIN
1070
    73
1070
     1
1070
    44
1040
1.0
1070
    74
1070
     0
1000
MTEXTEND
  0
INSERT
  5
339B
330
1977
100
AcDbEntity
  8
寸法
  6
Continuous
 62
     0
370
    -2
100
AcDbBlockReference
  2
_Open30
 10
49016.30326240607
 20
22042.03162851005
 30
0.0
 41
300.0
 42
300.0
 43
300.0
 50
354.7197928137975
  0
POINT
  5
339C
330
1977
100
AcDbEntity
  8
Defpoints
  6
Continuous
 62
     0
100
AcDbPoint
 10
49016.30326240607
 20
22042.03162851005
 30
0.0
  0
POINT
  5
339D
330
1977
100
AcDbEntity
  8
Defpoints
  6
Continuous
 62
     0
100
AcDbPoint
 10
45033.27706972862
 20
22410.13806480957
 30
0.0
  0
ENDBLK
  5
197E
330
1977
100
AcDbEntity
  8
0
100
AcDbBlockEnd
  0
BLOCK
  5
19AB
330
19A1
100
AcDbEntity
  8
0
100
AcDbBlockBegin
  2
*D32
 70
     1
 10
0.0
 20
0.0
 30
0.0
  3
*D32
  1

  0
LINE
  5
2FDB
330
19A1
100
AcDbEntity
  8
寸法
  6
Continuous
 62
     0
370
    -2
100
AcDbLine
 10
9491.837824836236
 20
24165.9416122921
 30
0.0
 11
7738.8911830851
 21
24165.94161229211
 31
0.0
  0
LINE
  5
2FDC
330
19A1
100
AcDbEntity
  8
寸法
  6
Continuous
 62
     0
370
    -2
100
AcDbLine
 10
19491.83782483622
 20
21165.94161229212
 30
0.0
 11
7738.8911830851
 21
21165.94161229212
 31
0.0
  0
LINE
  5
2FDD
330
19A1
100
AcDbEntity
  8
寸法
  6
Continuous
 62
     0
370
    -2
100
AcDbLine
 10
7838.8911830851
 20
23865.94161229211
 30
0.0
 11
7838.8911830851
 21
21465.94161229212
 31
0.0
  0
INSERT
  5
2FDE
330
19A1
100
AcDbEntity
  8
寸法
  6
Continuous
 62
     0
370
    -2
100
AcDbBlockReference
  2
_Open30
 10
7838.8911830851
 20
24165.94161229211
 30
0.0
 41
300.0
 42
300.0
 43
300.0
 50
90.0
  0
INSERT
  5
2FDF
330
19A1
100
AcDbEntity
  8
寸法
  6
Continuous
 62
     0
370
    -2
100
AcDbBlockReference
  2
_Open30
 10
7838.8911830851
 20
21165.94161229212
 30
0.0
 41
300.0
 42
300.0
 43
300.0
 50
270.0
  0
MTEXT
  5
2FE0
330
19A1
100
AcDbEntity
  8
寸法
  6
Continuous
 62
     0
100
AcDbMText
 10
7438.891183085097
 20
22665.94161229211
 30
0.0
 40
400.0
 41
0.0
 71
     5
 72
     1
  1
\A1;3000
  7
寸法
 11
0.0000000000000001
 21
1.0
 31
0.0
 73
     1
 44
1.0
1001
ACAD
1000
MTEXTBEGIN
1070
    73
1070
     1
1070
    44
1040
1.0
1070
    74
1070
     0
1000
MTEXTEND
  0
POINT
  5
2FE1
330
19A1
100
AcDbEntity
  8
Defpoints
  6
Continuous
 62
     0
100
AcDbPoint
 10
10491.83782483623
 20
24165.9416122921
 30
0.0
  0
POINT
  5
2FE2
330
19A1
100
AcDbEntity
  8
Defpoints
  6
Continuous
 62
     0
100
AcDbPoint
 10
20491.83782483622
 20
21165.94161229212
 30
0.0
  0
POINT
  5
2FE3
330
19A1
100
AcDbEntity
  8
Defpoints
  6
Continuous
 62
     0
100
AcDbPoint
 10
7838.8911830851
 20
21165.94161229212
 30
0.0
  0
ENDBLK
  5
19AC
330
19A1
100
AcDbEntity
  8
0
100
AcDbBlockEnd
  0
BLOCK
  5
19D5
330
19CB
100
AcDbEntity
  8
0
 62
     0
100
AcDbBlockBegin
  2
*D33
 70
     1
 10
0.0
 20
0.0
 30
0.0
  3
*D33
  1

  0
LINE
  5
2FE4
330
19CB
100
AcDbEntity
  8
寸法
  6
Continuous
 62
     0
370
    -2
100
AcDbLine
 10
19491.83782483622
 20
21165.94161229212
 30
0.0
 11
7738.8911830851
 21
21165.94161229212
 31
0.0
  0
LINE
  5
2FE5
330
19CB
100
AcDbEntity
  8
寸法
  6
Continuous
 62
     0
370
    -2
100
AcDbLine
 10
9491.837824836228
 20
14165.94161229209
 30
0.0
 11
7738.891183085097
 21
14165.94161229209
 31
0.0
  0
LINE
  5
2FE6
330
19CB
100
AcDbEntity
  8
寸法
  6
Continuous
 62
     0
370
    -2
100
AcDbLine
 10
7838.8911830851
 20
20865.94161229212
 30
0.0
 11
7838.891183085099
 21
14465.94161229209
 31
0.0
  0
INSERT
  5
2FE7
330
19CB
100
AcDbEntity
  8
寸法
  6
Continuous
 62
     0
370
    -2
100
AcDbBlockReference
  2
_Open30
 10
7838.8911830851
 20
21165.94161229212
 30
0.0
 41
300.0
 42
300.0
 43
300.0
 50
90.0
  0
INSERT
  5
2FE8
330
19CB
100
AcDbEntity
  8
寸法
  6
Continuous
 62
     0
370
    -2
100
AcDbBlockReference
  2
_Open30
 10
7838.891183085097
 20
14165.94161229209
 30
0.0
 41
300.0
 42
300.0
 43
300.0
 50
270.0
  0
MTEXT
  5
2FE9
330
19CB
100
AcDbEntity
  8
寸法
  6
Continuous
 62
     0
100
AcDbMText
 10
7438.891183085096
 20
17665.94161229211
 30
0.0
 40
400.0
 41
0.0
 71
     5
 72
     1
  1
\A1;7000
  7
寸法
 11
0.0000000000000001
 21
1.0
 31
0.0
 73
     1
 44
1.0
1001
ACAD
1000
MTEXTBEGIN
1070
    73
1070
     1
1070
    44
1040
1.0
1070
    74
1070
     0
1000
MTEXTEND
  0
POINT
  5
2FEA
330
19CB
100
AcDbEntity
  8
Defpoints
  6
Continuous
 62
     0
100
AcDbPoint
 10
20491.83782483622
 20
21165.94161229212
 30
0.0
  0
POINT
  5
2FEB
330
19CB
100
AcDbEntity
  8
Defpoints
  6
Continuous
 62
     0
100
AcDbPoint
 10
10491.83782483622
 20
14165.94161229209
 30
0.0
  0
POINT
  5
2FEC
330
19CB
100
AcDbEntity
  8
Defpoints
  6
Continuous
 62
     0
100
AcDbPoint
 10
7838.891183085097
 20
14165.94161229209
 30
0.0
  0
ENDBLK
  5
19D6
330
19CB
100
AcDbEntity
  8
0
 62
     0
100
AcDbBlockEnd
  0
BLOCK
  5
19EF
330
19E5
100
AcDbEntity
  8
0
 62
     0
100
AcDbBlockBegin
  2
*D34
 70
     1
 10
0.0
 20
0.0
 30
0.0
  3
*D34
  1

  0
LINE
  5
2FED
330
19E5
100
AcDbEntity
  8
寸法
  6
Continuous
 62
     0
370
    -2
100
AcDbLine
 10
9491.837824836236
 20
24165.9416122921
 30
0.0
 11
6738.8911830851
 21
24165.94161229211
 31
0.0
  0
LINE
  5
2FEE
330
19E5
100
AcDbEntity
  8
寸法
  6
Continuous
 62
     0
370
    -2
100
AcDbLine
 10
8491.837824836228
 20
14165.94161229209
 30
0.0
 11
6738.891183085097
 21
14165.94161229209
 31
0.0
  0
LINE
  5
2FEF
330
19E5
100
AcDbEntity
  8
寸法
  6
Continuous
 62
     0
370
    -2
100
AcDbLine
 10
6838.8911830851
 20
23865.94161229211
 30
0.0
 11
6838.891183085099
 21
14465.94161229209
 31
0.0
  0
INSERT
  5
2FF0
330
19E5
100
AcDbEntity
  8
寸法
  6
Continuous
 62
     0
370
    -2
100
AcDbBlockReference
  2
_Open30
 10
6838.8911830851
 20
24165.94161229211
 30
0.0
 41
300.0
 42
300.0
 43
300.0
 50
90.0
  0
INSERT
  5
2FF1
330
19E5
100
AcDbEntity
  8
寸法
  6
Continuous
 62
     0
370
    -2
100
AcDbBlockReference
  2
_Open30
 10
6838.891183085097
 20
14165.94161229209
 30
0.0
 41
300.0
 42
300.0
 43
300.0
 50
270.0
  0
MTEXT
  5
2FF2
330
19E5
100
AcDbEntity
  8
寸法
  6
Continuous
 62
     0
100
AcDbMText
 10
6438.891183085096
 20
19165.9416122921
 30
0.0
 40
400.0
 41
0.0
 71
     5
 72
     1
  1
\A1;10000
  7
寸法
 11
0.0000000000000001
 21
1.0
 31
0.0
 73
     1
 44
1.0
1001
ACAD
1000
MTEXTBEGIN
1070
    73
1070
     1
1070
    44
1040
1.0
1070
    74
1070
     0
1000
MTEXTEND
  0
POINT
  5
2FF3
330
19E5
100
AcDbEntity
  8
Defpoints
  6
Continuous
 62
     0
100
AcDbPoint
 10
10491.83782483623
 20
24165.9416122921
 30
0.0
  0
POINT
  5
2FF4
330
19E5
100
AcDbEntity
  8
Defpoints
  6
Continuous
 62
     0
100
AcDbPoint
 10
9491.837824836228
 20
14165.94161229209
 30
0.0
  0
POINT
  5
2FF5
330
19E5
100
AcDbEntity
  8
Defpoints
  6
Continuous
 62
     0
100
AcDbPoint
 10
6838.891183085097
 20
14165.94161229209
 30
0.0
  0
ENDBLK
  5
19F0
330
19E5
100
AcDbEntity
  8
0
 62
     0
100
AcDbBlockEnd
  0
BLOCK
  5
1A07
330
19FD
100
AcDbEntity
  8
0
 62
     0
100
AcDbBlockBegin
  2
*D35
 70
     1
 10
0.0
 20
0.0
 30
0.0
  3
*D35
  1

  0
LINE
  5
2FF6
330
19FD
100
AcDbEntity
  8
寸法
  6
Continuous
 62
     0
370
    -2
100
AcDbLine
 10
16305.57129604295
 20
13584.703418573
 30
0.0
 11
17331.40893956291
 21
12851.96224463018
 31
0.0
  0
LINE
  5
2FF7
330
19FD
100
AcDbEntity
  8
寸法
  6
Continuous
 62
     0
370
    -2
100
AcDbLine
 10
21305.57129604296
 20
20584.70341857302
 30
0.0
 11
22331.40893956291
 21
19851.9622446302
 31
0.0
  0
LINE
  5
2FF8
330
19FD
100
AcDbEntity
  8
寸法
  6
Continuous
 62
     0
370
    -2
100
AcDbLine
 10
17424.40705055796
 20
13154.20610536411
 30
0.0
 11
22075.66413432651
 21
19665.96602264009
 31
0.0
  0
INSERT
  5
2FF9
330
19FD
100
AcDbEntity
  8
寸法
  6
Continuous
 62
     0
370
    -2
100
AcDbBlockReference
  2
_Open30
 10
17250.03559244223
 20
12910.08606400209
 30
0.0
 41
300.0
 42
300.0
 43
300.0
 50
234.4623222080257
  0
INSERT
  5
2FFA
330
19FD
100
AcDbEntity
  8
寸法
  6
Continuous
 62
     0
370
    -2
100
AcDbBlockReference
  2
_Open30
 10
22250.03559244223
 20
19910.08606400211
 30
0.0
 41
300.0
 42
300.0
 43
300.0
 50
54.46232220802571
  0
MTEXT
  5
2FFB
330
19FD
100
AcDbEntity
  8
寸法
  6
Continuous
 62
     0
100
AcDbMText
 10
19424.54220395954
 20
16642.58134148974
 30
0.0
 40
400.0
 41
0.0
 71
     5
 72
     1
  1
\A1;8602
  7
寸法
 11
0.5812381937190953
 21
0.8137334712067357
 31
0.0
 73
     1
 44
1.0
1001
ACAD
1000
MTEXTBEGIN
1070
    73
1070
     1
1070
    44
1040
1.0
1070
    74
1070
     0
1000
MTEXTEND
  0
POINT
  5
2FFC
330
19FD
100
AcDbEntity
  8
Defpoints
  6
Continuous
 62
     0
100
AcDbPoint
 10
15491.83782483622
 20
14165.94161229209
 30
0.0
  0
POINT
  5
2FFD
330
19FD
100
AcDbEntity
  8
Defpoints
  6
Continuous
 62
     0
100
AcDbPoint
 10
20491.83782483622
 20
21165.94161229212
 30
0.0
  0
POINT
  5
2FFE
330
19FD
100
AcDbEntity
  8
Defpoints
  6
Continuous
 62
     0
100
AcDbPoint
 10
22250.03559244223
 20
19910.08606400211
 30
0.0
  0
ENDBLK
  5
1A08
330
19FD
100
AcDbEntity
  8
0
 62
     0
100
AcDbBlockEnd
  0
BLOCK
  5
20C9
330
20BD
100
AcDbEntity
  8
0
 62
     0
100
AcDbBlockBegin
  2
*D36
 70
     1
 10
0.0
 20
0.0
 30
0.0
  3
*D36
  1

  0
LINE
  5
3384
330
20BD
100
AcDbEntity
  8
寸法
  6
Continuous
 62
     0
370
    -2
100
AcDbLine
 10
54301.82558938112
 20
20538.83813082717
 30
0.0
 11
55277.82141988894
 21
20148.67872484825
 31
0.0
  0
LINE
  5
3385
330
20BD
100
AcDbEntity
  8
寸法
  6
Continuous
 62
     0
370
    -2
100
AcDbLine
 10
54048.74711592624
 20
24109.14685027822
 30
0.0
 11
54959.9483195984
 21
24633.07870621835
 31
0.0
  0
ARC
  5
3386
330
20BD
100
AcDbEntity
  8
寸法
  6
Continuous
 62
     0
370
    -2
100
AcDbCircle
 10
50489.7265474383
 20
22062.7445362094
 30
0.0
 40
5056.500793930882
100
AcDbArc
 50
341.6105155688429
 51
26.49865175321198
  0
INSERT
  5
3387
330
20BD
100
AcDbEntity
  8
寸法
  6
Continuous
 62
     0
370
    -2
100
AcDbBlockReference
  2
_Open30
 10
55184.96591450269
 20
20185.79819574242
 30
0.0
 41
300.0
 42
300.0
 43
300.0
 50
249.9105993060114
  0
INSERT
  5
3388
330
20BD
100
AcDbEntity
  8
寸法
  6
Continuous
 62
     0
370
    -2
100
AcDbBlockReference
  2
_Open30
 10
54873.25732601955
 20
24583.23222557718
 30
0.0
 41
300.0
 42
300.0
 43
300.0
 50
118.1985680160434
  0
MTEXT
  5
3389
330
20BD
100
AcDbEntity
  8
寸法
  6
Continuous
 62
     0
100
AcDbMText
 10
55932.57050052738
 20
22448.55616963945
 30
0.0
 40
400.0
 41
0.0
 71
     5
 72
     1
  1
\A1;52°
  7
寸法
 11
0.07070678590557
 21
-0.9974971430670384
 31
0.0
 73
     1
 44
1.0
1001
ACAD
1000
MTEXTBEGIN
1070
    73
1070
     1
1070
    44
1040
1.0
1070
    74
1070
     0
1000
MTEXTEND
  0
POINT
  5
338A
330
20BD
100
AcDbEntity
  8
Defpoints
  6
Continuous
 62
     0
100
AcDbPoint
 10
55530.22126997186
 20
21660.73305486212
 30
0.0
  0
POINT
  5
338B
330
20BD
100
AcDbEntity
  8
Defpoints
  6
Continuous
 62
     0
100
AcDbPoint
 10
50489.7265474383
 20
22062.7445362094
 30
0.0
  0
POINT
  5
338C
330
20BD
100
AcDbEntity
  8
Defpoints
  6
Continuous
 62
     0
100
AcDbPoint
 10
50489.7265474383
 20
22062.7445362094
 30
0.0
  0
POINT
  5
338D
330
20BD
100
AcDbEntity
  8
Defpoints
  6
Continuous
 62
     0
100
AcDbPoint
 10
54023.25907322236
 20
20650.19654350969
 30
0.0
  0
POINT
  5
338E
330
20BD
100
AcDbEntity
  8
Defpoints
  6
Continuous
 62
     0
100
AcDbPoint
 10
53788.67413518968
 20
23959.60740835469
 30
0.0
  0
ENDBLK
  5
20CA
330
20BD
100
AcDbEntity
  8
0
 62
     0
100
AcDbBlockEnd
  0
BLOCK
  5
213D
330
213C
100
AcDbEntity
  8
0
 62
     0
100
AcDbBlockBegin
  2
sunpo
 70
     0
 10
0.0
 20
0.0
 30
0.0
  3
sunpo
  1

  0
LINE
  5
213F
330
213C
100
AcDbEntity
  8
寸法
  6
Continuous
 62
     0
100
AcDbLine
 10
44507.93393173237
 20
45903.78943549642
 30
0.0
 11
61703.67516214319
 21
45903.78943549641
 31
0.0
  0
LINE
  5
2140
330
213C
100
AcDbEntity
  8
寸法
  6
Continuous
 62
     0
100
AcDbLine
 10
46007.93393173237
 20
44903.78943549642
 30
0.0
 11
61703.67516214319
 21
44903.78943549641
 31
0.0
  0
LINE
  5
2141
330
213C
100
AcDbEntity
  8
寸法
  6
Continuous
 62
     0
100
AcDbLine
 10
47507.93393173237
 20
43903.78943549642
 30
0.0
 11
61703.67516214319
 21
43903.78943549642
 31
0.0
  0
LINE
  5
2142
330
213C
100
AcDbEntity
  8
寸法
  6
Continuous
 62
     0
100
AcDbLine
 10
49007.93393173238
 20
42903.78943549642
 30
0.0
 11
61703.67516214319
 21
42903.78943549641
 31
0.0
  0
LINE
  5
2143
330
213C
100
AcDbEntity
  8
寸法
  6
Continuous
 62
     0
100
AcDbLine
 10
50507.93393173237
 20
41903.78943549641
 30
0.0
 11
61703.67516214319
 21
41903.78943549641
 31
0.0
  0
LINE
  5
2144
330
213C
100
AcDbEntity
  8
寸法
  6
Continuous
 62
     0
100
AcDbLine
 10
52007.93393173237
 20
40903.78943549642
 30
0.0
 11
61703.67516214319
 21
40903.78943549642
 31
0.0
  0
LINE
  5
2145
330
213C
100
AcDbEntity
  8
寸法
  6
Continuous
 62
     0
100
AcDbLine
 10
52007.93393173237
 20
40903.78943549642
 30
0.0
 11
61703.67516214319
 21
40903.78943549642
 31
0.0
  0
LINE
  5
2146
330
213C
100
AcDbEntity
  8
寸法
  6
Continuous
 62
     0
100
AcDbLine
 10
53507.93393173237
 20
39903.78943549643
 30
0.0
 11
61703.67516214319
 21
39903.78943549643
 31
0.0
  0
LINE
  5
2147
330
213C
100
AcDbEntity
  8
寸法
  6
Continuous
 62
     0
100
AcDbLine
 10
55007.93393173237
 20
38903.78943549642
 30
0.0
 11
61703.67516214319
 21
38903.78943549642
 31
0.0
  0
LINE
  5
2148
330
213C
100
AcDbEntity
  8
寸法
  6
Continuous
 62
     0
100
AcDbLine
 10
56507.93393173238
 20
37903.78943549642
 30
0.0
 11
61703.67516214319
 21
37903.78943549642
 31
0.0
  0
LINE
  5
2149
330
213C
100
AcDbEntity
  8
寸法
  6
Continuous
 62
     0
100
AcDbLine
 10
58007.93393173237
 20
36903.78943549642
 30
0.0
 11
61703.67516214319
 21
36903.78943549642
 31
0.0
  0
LINE
  5
214A
330
213C
100
AcDbEntity
  8
寸法
  6
Continuous
 62
     0
100
AcDbLine
 10
59507.93393173237
 20
35903.78943549642
 30
0.0
 11
61703.67516214319
 21
35903.78943549642
 31
0.0
  0
LINE
  5
214B
330
213C
100
AcDbEntity
  8
寸法
  6
Continuous
 62
     0
100
AcDbLine
 10
59507.93393173237
 20
34903.78943549643
 30
0.0
 11
61703.67516214319
 21
34903.78943549643
 31
0.0
  0
MTEXT
  5
214C
330
213C
100
AcDbEntity
  8
寸法
  6
Continuous
 62
     0
100
AcDbMText
 10
61303.67516214318
 20
45403.78943549642
 30
0.0
 40
400.0
 41
0.0
 71
     5
 72
     1
  1
\A1;1000
  7
寸法
 11
0.0000000000000001
 21
1.0
 31
0.0
 73
     1
 44
1.0
1001
ACAD
1000
MTEXTBEGIN
1070
    73
1070
     1
1070
    44
1040
1.0
1070
    74
1070
     0
1000
MTEXTEND
  0
INSERT
  5
214D
330
213C
100
AcDbEntity
  8
寸法
  6
Continuous
 62
     0
100
AcDbBlockReference
  2
_Open30
 10
61603.67516214319
 20
44903.78943549641
 30
0.0
 41
300.0
 42
300.0
 43
300.0
 50
270.0
  0
INSERT
  5
214E
330
213C
100
AcDbEntity
  8
寸法
  6
Continuous
 62
     0
100
AcDbBlockReference
  2
_Open30
 10
61603.67516214319
 20
45903.78943549641
 30
0.0
 41
300.0
 42
300.0
 43
300.0
 50
90.0
  0
LINE
  5
214F
330
213C
100
AcDbEntity
  8
寸法
  6
Continuous
 62
     0
100
AcDbLine
 10
61603.67516214319
 20
45603.78943549642
 30
0.0
 11
61603.67516214319
 21
45203.78943549641
 31
0.0
  0
MTEXT
  5
2150
330
213C
100
AcDbEntity
  8
寸法
  6
Continuous
 62
     0
100
AcDbMText
 10
61988.97370198608
 20
44416.79877764501
 30
0.0
 40
400.0
 41
0.0
 71
     5
 72
     1
  1
\A1;1000
  7
寸法
 11
0.0000000000000001
 21
1.0
 31
0.0
 73
     1
 44
1.0
1001
ACAD
1000
MTEXTBEGIN
1070
    73
1070
     1
1070
    44
1040
1.0
1070
    74
1070
     0
1000
MTEXTEND
  0
INSERT
  5
2151
330
213C
100
AcDbEntity
  8
寸法
  6
Continuous
 62
     0
100
AcDbBlockReference
  2
_Open30
 10
61603.67516214319
 20
43903.78943549642
 30
0.0
 41
300.0
 42
300.0
 43
300.0
 50
270.0
  0
INSERT
  5
2152
330
213C
100
AcDbEntity
  8
寸法
  6
Continuous
 62
     0
100
AcDbBlockReference
  2
_Open30
 10
61603.67516214319
 20
44903.78943549641
 30
0.0
 41
300.0
 42
300.0
 43
300.0
 50
90.0
  0
LINE
  5
2153
330
213C
100
AcDbEntity
  8
寸法
  6
Continuous
 62
     0
100
AcDbLine
 10
61603.67516214319
 20
44603.78943549641
 30
0.0
 11
61603.67516214319
 21
44203.78943549641
 31
0.0
  0
MTEXT
  5
2154
330
213C
100
AcDbEntity
  8
寸法
  6
Continuous
 62
     0
100
AcDbMText
 10
61303.67516214318
 20
43403.78943549642
 30
0.0
 40
400.0
 41
0.0
 71
     5
 72
     1
  1
\A1;1000
  7
寸法
 11
0.0000000000000001
 21
1.0
 31
0.0
 73
     1
 44
1.0
1001
ACAD
1000
MTEXTBEGIN
1070
    73
1070
     1
1070
    44
1040
1.0
1070
    74
1070
     0
1000
MTEXTEND
  0
INSERT
  5
2155
330
213C
100
AcDbEntity
  8
寸法
  6
Continuous
 62
     0
100
AcDbBlockReference
  2
_Open30
 10
61603.67516214319
 20
42903.78943549641
 30
0.0
 41
300.0
 42
300.0
 43
300.0
 50
270.0
  0
INSERT
  5
2156
330
213C
100
AcDbEntity
  8
寸法
  6
Continuous
 62
     0
100
AcDbBlockReference
  2
_Open30
 10
61603.67516214319
 20
43903.78943549642
 30
0.0
 41
300.0
 42
300.0
 43
300.0
 50
90.0
  0
LINE
  5
2157
330
213C
100
AcDbEntity
  8
寸法
  6
Continuous
 62
     0
100
AcDbLine
 10
61603.67516214319
 20
43603.78943549641
 30
0.0
 11
61603.67516214319
 21
43203.78943549641
 31
0.0
  0
MTEXT
  5
2158
330
213C
100
AcDbEntity
  8
寸法
  6
Continuous
 62
     0
100
AcDbMText
 10
61988.97370198608
 20
42416.79877764501
 30
0.0
 40
400.0
 41
0.0
 71
     5
 72
     1
  1
\A1;1000
  7
寸法
 11
0.0000000000000001
 21
1.0
 31
0.0
 73
     1
 44
1.0
1001
ACAD
1000
MTEXTBEGIN
1070
    73
1070
     1
1070
    44
1040
1.0
1070
    74
1070
     0
1000
MTEXTEND
  0
INSERT
  5
2159
330
213C
100
AcDbEntity
  8
寸法
  6
Continuous
 62
     0
100
AcDbBlockReference
  2
_Open30
 10
61603.67516214319
 20
41903.78943549641
 30
0.0
 41
300.0
 42
300.0
 43
300.0
 50
270.0
  0
INSERT
  5
215A
330
213C
100
AcDbEntity
  8
寸法
  6
Continuous
 62
     0
100
AcDbBlockReference
  2
_Open30
 10
61603.67516214319
 20
42903.78943549641
 30
0.0
 41
300.0
 42
300.0
 43
300.0
 50
90.0
  0
LINE
  5
215B
330
213C
100
AcDbEntity
  8
寸法
  6
Continuous
 62
     0
100
AcDbLine
 10
61603.67516214319
 20
42603.78943549642
 30
0.0
 11
61603.67516214319
 21
42203.78943549642
 31
0.0
  0
MTEXT
  5
215C
330
213C
100
AcDbEntity
  8
寸法
  6
Continuous
 62
     0
100
AcDbMText
 10
61303.67516214318
 20
41403.78943549642
 30
0.0
 40
400.0
 41
0.0
 71
     5
 72
     1
  1
\A1;1000
  7
寸法
 11
0.0000000000000001
 21
1.0
 31
0.0
 73
     1
 44
1.0
1001
ACAD
1000
MTEXTBEGIN
1070
    73
1070
     1
1070
    44
1040
1.0
1070
    74
1070
     0
1000
MTEXTEND
  0
INSERT
  5
215D
330
213C
100
AcDbEntity
  8
寸法
  6
Continuous
 62
     0
100
AcDbBlockReference
  2
_Open30
 10
61603.67516214319
 20
40903.78943549642
 30
0.0
 41
300.0
 42
300.0
 43
300.0
 50
270.0
  0
INSERT
  5
215E
330
213C
100
AcDbEntity
  8
寸法
  6
Continuous
 62
     0
100
AcDbBlockReference
  2
_Open30
 10
61603.67516214319
 20
41903.78943549641
 30
0.0
 41
300.0
 42
300.0
 43
300.0
 50
90.0
  0
LINE
  5
215F
330
213C
100
AcDbEntity
  8
寸法
  6
Continuous
 62
     0
100
AcDbLine
 10
61603.67516214319
 20
41603.78943549641
 30
0.0
 11
61603.67516214319
 21
41203.78943549642
 31
0.0
  0
MTEXT
  5
2160
330
213C
100
AcDbEntity
  8
寸法
  6
Continuous
 62
     0
100
AcDbMText
 10
61988.97370198608
 20
40416.79877764502
 30
0.0
 40
400.0
 41
0.0
 71
     5
 72
     1
  1
\A1;1000
  7
寸法
 11
0.0000000000000001
 21
1.0
 31
0.0
 73
     1
 44
1.0
1001
ACAD
1000
MTEXTBEGIN
1070
    73
1070
     1
1070
    44
1040
1.0
1070
    74
1070
     0
1000
MTEXTEND
  0
INSERT
  5
2161
330
213C
100
AcDbEntity
  8
寸法
  6
Continuous
 62
     0
100
AcDbBlockReference
  2
_Open30
 10
61603.67516214319
 20
39903.78943549643
 30
0.0
 41
300.0
 42
300.0
 43
300.0
 50
270.0
  0
INSERT
  5
2162
330
213C
100
AcDbEntity
  8
寸法
  6
Continuous
 62
     0
100
AcDbBlockReference
  2
_Open30
 10
61603.67516214319
 20
40903.78943549642
 30
0.0
 41
300.0
 42
300.0
 43
300.0
 50
90.0
  0
LINE
  5
2163
330
213C
100
AcDbEntity
  8
寸法
  6
Continuous
 62
     0
100
AcDbLine
 10
61603.67516214319
 20
40603.78943549642
 30
0.0
 11
61603.67516214319
 21
40203.78943549642
 31
0.0
  0
MTEXT
  5
2164
330
213C
100
AcDbEntity
  8
寸法
  6
Continuous
 62
     0
100
AcDbMText
 10
61303.67516214318
 20
39403.78943549643
 30
0.0
 40
400.0
 41
0.0
 71
     5
 72
     1
  1
\A1;1000
  7
寸法
 11
0.0000000000000001
 21
1.0
 31
0.0
 73
     1
 44
1.0
1001
ACAD
1000
MTEXTBEGIN
1070
    73
1070
     1
1070
    44
1040
1.0
1070
    74
1070
     0
1000
MTEXTEND
  0
INSERT
  5
2165
330
213C
100
AcDbEntity
  8
寸法
  6
Continuous
 62
     0
100
AcDbBlockReference
  2
_Open30
 10
61603.67516214319
 20
38903.78943549642
 30
0.0
 41
300.0
 42
300.0
 43
300.0
 50
270.0
  0
INSERT
  5
2166
330
213C
100
AcDbEntity
  8
寸法
  6
Continuous
 62
     0
100
AcDbBlockReference
  2
_Open30
 10
61603.67516214319
 20
39903.78943549643
 30
0.0
 41
300.0
 42
300.0
 43
300.0
 50
90.0
  0
LINE
  5
2167
330
213C
100
AcDbEntity
  8
寸法
  6
Continuous
 62
     0
100
AcDbLine
 10
61603.67516214319
 20
39603.78943549642
 30
0.0
 11
61603.67516214319
 21
39203.78943549642
 31
0.0
  0
MTEXT
  5
2168
330
213C
100
AcDbEntity
  8
寸法
  6
Continuous
 62
     0
100
AcDbMText
 10
61988.97370198608
 20
38416.79877764502
 30
0.0
 40
400.0
 41
0.0
 71
     5
 72
     1
  1
\A1;1000
  7
寸法
 11
0.0000000000000001
 21
1.0
 31
0.0
 73
     1
 44
1.0
1001
ACAD
1000
MTEXTBEGIN
1070
    73
1070
     1
1070
    44
1040
1.0
1070
    74
1070
     0
1000
MTEXTEND
  0
INSERT
  5
2169
330
213C
100
AcDbEntity
  8
寸法
  6
Continuous
 62
     0
100
AcDbBlockReference
  2
_Open30
 10
61603.67516214319
 20
37903.78943549642
 30
0.0
 41
300.0
 42
300.0
 43
300.0
 50
270.0
  0
INSERT
  5
216A
330
213C
100
AcDbEntity
  8
寸法
  6
Continuous
 62
     0
100
AcDbBlockReference
  2
_Open30
 10
61603.67516214319
 20
38903.78943549642
 30
0.0
 41
300.0
 42
300.0
 43
300.0
 50
90.0
  0
LINE
  5
216B
330
213C
100
AcDbEntity
  8
寸法
  6
Continuous
 62
     0
100
AcDbLine
 10
61603.67516214319
 20
38603.78943549642
 30
0.0
 11
61603.67516214319
 21
38203.78943549642
 31
0.0
  0
MTEXT
  5
216C
330
213C
100
AcDbEntity
  8
寸法
  6
Continuous
 62
     0
100
AcDbMText
 10
61303.67516214318
 20
37403.78943549643
 30
0.0
 40
400.0
 41
0.0
 71
     5
 72
     1
  1
\A1;1000
  7
寸法
 11
0.0000000000000001
 21
1.0
 31
0.0
 73
     1
 44
1.0
1001
ACAD
1000
MTEXTBEGIN
1070
    73
1070
     1
1070
    44
1040
1.0
1070
    74
1070
     0
1000
MTEXTEND
  0
INSERT
  5
216D
330
213C
100
AcDbEntity
  8
寸法
  6
Continuous
 62
     0
100
AcDbBlockReference
  2
_Open30
 10
61603.67516214319
 20
36903.78943549642
 30
0.0
 41
300.0
 42
300.0
 43
300.0
 50
270.0
  0
INSERT
  5
216E
330
213C
100
AcDbEntity
  8
寸法
  6
Continuous
 62
     0
100
AcDbBlockReference
  2
_Open30
 10
61603.67516214319
 20
37903.78943549642
 30
0.0
 41
300.0
 42
300.0
 43
300.0
 50
90.0
  0
LINE
  5
216F
330
213C
100
AcDbEntity
  8
寸法
  6
Continuous
 62
     0
100
AcDbLine
 10
61603.67516214319
 20
37603.78943549643
 30
0.0
 11
61603.67516214319
 21
37203.78943549643
 31
0.0
  0
MTEXT
  5
2170
330
213C
100
AcDbEntity
  8
寸法
  6
Continuous
 62
     0
100
AcDbMText
 10
61988.97370198608
 20
36416.79877764503
 30
0.0
 40
400.0
 41
0.0
 71
     5
 72
     1
  1
\A1;1000
  7
寸法
 11
0.0000000000000001
 21
1.0
 31
0.0
 73
     1
 44
1.0
1001
ACAD
1000
MTEXTBEGIN
1070
    73
1070
     1
1070
    44
1040
1.0
1070
    74
1070
     0
1000
MTEXTEND
  0
INSERT
  5
2171
330
213C
100
AcDbEntity
  8
寸法
  6
Continuous
 62
     0
100
AcDbBlockReference
  2
_Open30
 10
61603.67516214319
 20
35903.78943549642
 30
0.0
 41
300.0
 42
300.0
 43
300.0
 50
270.0
  0
INSERT
  5
2172
330
213C
100
AcDbEntity
  8
寸法
  6
Continuous
 62
     0
100
AcDbBlockReference
  2
_Open30
 10
61603.67516214319
 20
36903.78943549642
 30
0.0
 41
300.0
 42
300.0
 43
300.0
 50
90.0
  0
LINE
  5
2173
330
213C
100
AcDbEntity
  8
寸法
  6
Continuous
 62
     0
100
AcDbLine
 10
61603.67516214319
 20
36603.78943549642
 30
0.0
 11
61603.67516214319
 21
36203.78943549642
 31
0.0
  0
MTEXT
  5
2174
330
213C
100
AcDbEntity
  8
寸法
  6
Continuous
 62
     0
100
AcDbMText
 10
61303.67516214318
 20
35403.78943549643
 30
0.0
 40
400.0
 41
0.0
 71
     5
 72
     1
  1
\A1;1000
  7
寸法
 11
0.0000000000000001
 21
1.0
 31
0.0
 73
     1
 44
1.0
1001
ACAD
1000
MTEXTBEGIN
1070
    73
1070
     1
1070
    44
1040
1.0
1070
    74
1070
     0
1000
MTEXTEND
  0
INSERT
  5
2175
330
213C
100
AcDbEntity
  8
寸法
  6
Continuous
 62
     0
100
AcDbBlockReference
  2
_Open30
 10
61603.67516214319
 20
34903.78943549643
 30
0.0
 41
300.0
 42
300.0
 43
300.0
 50
270.0
  0
INSERT
  5
2176
330
213C
100
AcDbEntity
  8
寸法
  6
Continuous
 62
     0
100
AcDbBlockReference
  2
_Open30
 10
61603.67516214319
 20
35903.78943549642
 30
0.0
 41
300.0
 42
300.0
 43
300.0
 50
90.0
  0
LINE
  5
2177
330
213C
100
AcDbEntity
  8
寸法
  6
Continuous
 62
     0
100
AcDbLine
 10
61603.67516214319
 20
35603.78943549642
 30
0.0
 11
61603.67516214319
 21
35203.78943549642
 31
0.0
  0
ENDBLK
  5
213E
330
213C
100
AcDbEntity
  8
0
 62
     0
100
AcDbBlockEnd
  0
BLOCK
  5
21B7
330
21B4
100
AcDbEntity
  8
0
 62
     0
100
AcDbBlockBegin
  2
_Integral
 70
     0
 10
0.0
 20
0.0
 30
0.0
  3
_Integral
  1

  0
ARC
  5
21B5
330
21B4
100
AcDbEntity
  8
0
  6
ByBlock
 62
     0
370
    -2
100
AcDbCircle
 10
0.44488802
 20
-0.09133463
 30
0.0
 40
0.4541666700000001
100
AcDbArc
 50
101.9999999980395
 51
167.9999999799193
  0
ARC
  5
21B6
330
21B4
100
AcDbEntity
  8
0
  6
ByBlock
 62
     0
370
    -2
100
AcDbCircle
 10
-0.44488802
 20
0.09133463
 30
0.0
 40
0.4541666700000001
100
AcDbArc
 50
282.0000000215427
 51
348.0000000034225
  0
ENDBLK
  5
21B8
330
21B4
100
AcDbEntity
  8
0
 62
     0
100
AcDbBlockEnd
  0
ENDSEC
  0
SECTION
  2
ENTITIES
  0
LINE
  5
B1
330
1F
100
AcDbEntity
  8
zuwaku
  6
Continuous
 62
   150
100
AcDbLine
 10
1800.0
 20
57899.99999999999
 30
0.0
 11
82300.00000000002
 21
57899.99999999999
 31
0.0
  0
LINE
  5
B2
330
1F
100
AcDbEntity
  8
zuwaku
  6
Continuous
 62
   150
100
AcDbLine
 10
1800.0
 20
1500.0
 30
0.0
 11
82300.00000000002
 21
1500.0
 31
0.0
  0
LINE
  5
CB
330
1F
100
AcDbEntity
  8
zuwaku
  6
Continuous
 62
   150
100
AcDbLine
 10
1800.0
 20
1500.0
 30
0.0
 11
1800.0
 21
57900.0
 31
0.0
  0
LINE
  5
CD
330
1F
100
AcDbEntity
  8
zuwaku
  6
Continuous
 62
   150
100
AcDbLine
 10
82300.00000000002
 20
1500.0
 30
0.0
 11
82300.00000000002
 21
57899.99999999998
 31
0.0
  0
LINE
  5
3E1
330
1F
100
AcDbEntity
  8
詳細
  6
Continuous
100
AcDbLine
 10
25356.35115001543
 20
41903.78943549642
 30
0.0
 11
26856.35115001543
 21
41903.78943549642
 31
0.0
  0
LINE
  5
3EA
330
1F
100
AcDbEntity
  8
詳細
  6
Continuous
100
AcDbLine
 10
19356.35115001542
 20
44903.78943549642
 30
0.0
 11
34356.35115001543
 21
34903.78943549643
 31
0.0
  0
LINE
  5
3F7
102
{ACAD_REACTORS
330
F13
330
F43
102
}
330
1F
100
AcDbEntity
  8
詳細
  6
Continuous
100
AcDbLine
 10
20856.35115001542
 20
45903.78943549642
 30
0.0
 11
20856.35115001542
 21
44903.78943549642
 31
0.0
  0
LINE
  5
3F8
330
1F
100
AcDbEntity
  8
詳細
  6
Continuous
100
AcDbLine
 10
22356.35115001543
 20
44903.78943549642
 30
0.0
 11
22356.35115001543
 21
43903.78943549642
 31
0.0
  0
LINE
  5
3F9
330
1F
100
AcDbEntity
  8
詳細
  6
Continuous
100
AcDbLine
 10
23856.35115001543
 20
43903.78943549642
 30
0.0
 11
23856.35115001543
 21
42903.78943549642
 31
0.0
  0
LINE
  5
3FA
330
1F
100
AcDbEntity
  8
詳細
  6
Continuous
100
AcDbLine
 10
25356.35115001543
 20
42903.78943549642
 30
0.0
 11
25356.35115001543
 21
41903.78943549642
 31
0.0
  0
LINE
  5
3FB
330
1F
100
AcDbEntity
  8
詳細
  6
Continuous
100
AcDbLine
 10
26856.35115001543
 20
41903.78943549642
 30
0.0
 11
26856.35115001543
 21
40903.78943549642
 31
0.0
  0
LINE
  5
3FC
330
1F
100
AcDbEntity
  8
詳細
  6
Continuous
100
AcDbLine
 10
28356.35115001543
 20
40903.78943549642
 30
0.0
 11
28356.35115001543
 21
39903.78943549643
 31
0.0
  0
LINE
  5
3FD
330
1F
100
AcDbEntity
  8
詳細
  6
Continuous
100
AcDbLine
 10
29856.35115001543
 20
39903.78943549643
 30
0.0
 11
29856.35115001543
 21
38903.78943549642
 31
0.0
  0
LINE
  5
3FE
330
1F
100
AcDbEntity
  8
詳細
  6
Continuous
100
AcDbLine
 10
31356.35115001543
 20
38903.78943549642
 30
0.0
 11
31356.35115001543
 21
37903.78943549642
 31
0.0
  0
LINE
  5
3FF
330
1F
100
AcDbEntity
  8
詳細
  6
Continuous
100
AcDbLine
 10
32856.35115001543
 20
37903.78943549642
 30
0.0
 11
32856.35115001543
 21
36903.78943549642
 31
0.0
  0
LINE
  5
402
330
1F
100
AcDbEntity
  8
詳細
  6
Continuous
100
AcDbLine
 10
20856.35115001543
 20
45903.78943549642
 30
0.0
 11
17856.35115001543
 21
45903.78943549642
 31
0.0
  0
LINE
  5
404
102
{ACAD_REACTORS
330
F43
330
F5B
102
}
330
1F
100
AcDbEntity
  8
詳細
  6
Continuous
100
AcDbLine
 10
22356.35115001543
 20
44903.78943549642
 30
0.0
 11
20856.35115001543
 21
44903.78943549642
 31
0.0
  0
LINE
  5
405
102
{ACAD_REACTORS
330
F5B
330
F73
102
}
330
1F
100
AcDbEntity
  8
詳細
  6
Continuous
100
AcDbLine
 10
23856.35115001543
 20
43903.78943549642
 30
0.0
 11
22356.35115001543
 21
43903.78943549642
 31
0.0
  0
LINE
  5
406
102
{ACAD_REACTORS
330
F73
330
F8B
102
}
330
1F
100
AcDbEntity
  8
詳細
  6
Continuous
100
AcDbLine
 10
25356.35115001543
 20
42903.78943549642
 30
0.0
 11
23856.35115001543
 21
42903.78943549642
 31
0.0
  0
LINE
  5
407
102
{ACAD_REACTORS
330
F8B
330
FA3
102
}
330
1F
100
AcDbEntity
  8
詳細
  6
Continuous
100
AcDbLine
 10
26856.35115001543
 20
41903.78943549642
 30
0.0
 11
25356.35115001543
 21
41903.78943549642
 31
0.0
  0
LINE
  5
408
102
{ACAD_REACTORS
330
FA3
330
FBB
102
}
330
1F
100
AcDbEntity
  8
詳細
  6
Continuous
100
AcDbLine
 10
28356.35115001543
 20
40903.78943549642
 30
0.0
 11
26856.35115001543
 21
40903.78943549642
 31
0.0
  0
LINE
  5
409
102
{ACAD_REACTORS
330
FBB
330
FD3
102
}
330
1F
100
AcDbEntity
  8
詳細
  6
Continuous
100
AcDbLine
 10
29856.35115001543
 20
39903.78943549643
 30
0.0
 11
28356.35115001543
 21
39903.78943549643
 31
0.0
  0
LINE
  5
40A
102
{ACAD_REACTORS
330
FD3
330
FEB
102
}
330
1F
100
AcDbEntity
  8
詳細
  6
Continuous
100
AcDbLine
 10
31356.35115001543
 20
38903.78943549642
 30
0.0
 11
29856.35115001543
 21
38903.78943549642
 31
0.0
  0
LINE
  5
40B
102
{ACAD_REACTORS
330
FEB
330
1003
102
}
330
1F
100
AcDbEntity
  8
詳細
  6
Continuous
100
AcDbLine
 10
32856.35115001543
 20
37903.78943549642
 30
0.0
 11
31356.35115001543
 21
37903.78943549642
 31
0.0
  0
LINE
  5
40C
330
1F
100
AcDbEntity
  8
詳細
  6
Continuous
100
AcDbLine
 10
34356.35115001543
 20
36903.78943549642
 30
0.0
 11
32856.35115001543
 21
36903.78943549642
 31
0.0
  0
LINE
  5
410
330
1F
100
AcDbEntity
  8
詳細
  6
Continuous
100
AcDbLine
 10
35856.35115001543
 20
35903.78943549642
 30
0.0
 11
34356.35115001543
 21
35903.78943549642
 31
0.0
  0
LINE
  5
411
102
{ACAD_REACTORS
330
1003
330
101B
102
}
330
1F
100
AcDbEntity
  8
詳細
  6
Continuous
100
AcDbLine
 10
34356.35115001543
 20
36903.78943549642
 30
0.0
 11
34356.35115001543
 21
35903.78943549642
 31
0.0
  0
LINE
  5
412
330
1F
100
AcDbEntity
  8
詳細
  6
Continuous
100
AcDbLine
 10
35856.35115001543
 20
34903.78943549643
 30
0.0
 11
34356.35115001543
 21
34903.78943549643
 31
0.0
  0
LINE
  5
413
330
1F
100
AcDbEntity
  8
詳細
  6
Continuous
100
AcDbLine
 10
19356.35115001542
 20
44903.78943549642
 30
0.0
 11
17856.35115001543
 21
44903.78943549642
 31
0.0
  0
LINE
  5
416
102
{ACAD_REACTORS
330
F13
102
}
330
1F
100
AcDbEntity
  8
詳細
  6
Continuous
100
AcDbLine
 10
17856.35115001543
 20
45903.78943549642
 30
0.0
 11
17856.35115001543
 21
44903.78943549642
 31
0.0
  0
LINE
  5
418
102
{ACAD_REACTORS
330
101B
102
}
330
1F
100
AcDbEntity
  8
詳細
  6
Continuous
100
AcDbLine
 10
35856.35115001543
 20
35903.78943549642
 30
0.0
 11
35856.35115001543
 21
34903.78943549643
 31
0.0
  0
LINE
  5
422
102
{ACAD_REACTORS
330
19B7
330
19FB
102
}
330
1F
100
AcDbEntity
  8
詳細
  6
Continuous
100
AcDbLine
 10
10491.83782483623
 20
24165.9416122921
 30
0.0
 11
20491.83782483622
 21
24165.9416122921
 31
0.0
  0
LINE
  5
423
102
{ACAD_REACTORS
330
155E
102
}
330
1F
100
AcDbEntity
  8
詳細
  6
Continuous
100
AcDbLine
 10
10491.83782483623
 20
24165.9416122921
 30
0.0
 11
10491.83782483622
 21
14165.94161229209
 31
0.0
  0
LINE
  5
42E
330
1F
100
AcDbEntity
  8
詳細
  6
Continuous
100
AcDbLine
 10
20491.83782483622
 20
24165.9416122921
 30
0.0
 11
20491.83782483622
 21
21165.94161229212
 31
0.0
  0
LINE
  5
42F
330
1F
100
AcDbEntity
  8
詳細
  6
Continuous
100
AcDbLine
 10
10491.83782483622
 20
14165.94161229209
 30
0.0
 11
15491.83782483622
 21
14165.94161229209
 31
0.0
  0
LINE
  5
430
102
{ACAD_REACTORS
330
155E
102
}
330
1F
100
AcDbEntity
  8
詳細
  6
Continuous
100
AcDbLine
 10
20491.83782483622
 20
24165.9416122921
 30
0.0
 11
20491.83782483622
 21
24165.9416122921
 31
0.0
  0
LINE
  5
433
102
{ACAD_REACTORS
330
158E
330
15A6
102
}
330
1F
100
AcDbEntity
  8
詳細
  6
Continuous
100
AcDbLine
 10
15491.83782483622
 20
14165.94161229209
 30
0.0
 11
20491.83782483622
 21
21165.94161229212
 31
0.0
  0
DIMENSION
  5
EFC
102
{ACAD_XDICTIONARY
360
F09
102
}
102
{ACAD_REACTORS
330
F13
102
}
330
1F
100
AcDbEntity
  8
寸法
  6
Continuous
 62
     0
100
AcDbDimension
  2
*D3
 10
20856.35115001542
 20
49766.04982843469
 30
0.0
 11
19356.35115001542
 21
50166.04982843469
 31
0.0
 70
    32
 71
     5
 42
2999.999999999996
  3
30°矢印
100
AcDbAlignedDimension
 13
17856.35115001543
 23
45903.78943549642
 33
0.0
 14
20856.35115001542
 24
45903.78943549642
 34
0.0
100
AcDbRotatedDimension
1001
ACAD
1000
DSTYLE
1002
{
1070
    40
1040
1.0
1002
}
  0
DIMENSION
  5
F2C
102
{ACAD_XDICTIONARY
360
F39
102
}
102
{ACAD_REACTORS
330
F43
102
}
330
1F
100
AcDbEntity
  8
寸法
  6
Continuous
 62
     0
100
AcDbDimension
  2
*D4
 10
22356.35115001543
 20
49766.04982843469
 30
0.0
 11
21606.35115001543
 21
50166.04982843469
 31
0.0
 70
    32
 71
     5
 42
1500.000000000003
  3
30°矢印
100
AcDbAlignedDimension
 13
20856.35115001542
 23
45903.78943549642
 33
0.0
 14
22356.35115001543
 24
44903.78943549642
 34
0.0
100
AcDbRotatedDimension
1001
ACAD
1000
DSTYLE
1002
{
1070
    40
1040
1.0
1070
   279
1070
     1
1002
}
  0
DIMENSION
  5
F44
102
{ACAD_XDICTIONARY
360
F51
102
}
102
{ACAD_REACTORS
330
F5B
102
}
330
1F
100
AcDbEntity
  8
寸法
  6
Continuous
 62
     0
100
AcDbDimension
  2
*D5
 10
23856.35115001543
 20
49766.04982843469
 30
0.0
 11
23106.35115001543
 21
50166.04982843469
 31
0.0
 70
    32
 71
     5
 42
1500.0
  3
30°矢印
100
AcDbAlignedDimension
 13
22356.35115001543
 23
44903.78943549642
 33
0.0
 14
23856.35115001543
 24
43903.78943549642
 34
0.0
100
AcDbRotatedDimension
1001
ACAD
1000
DSTYLE
1002
{
1070
    40
1040
1.0
1070
   279
1070
     1
1002
}
  0
DIMENSION
  5
F5C
102
{ACAD_XDICTIONARY
360
F69
102
}
102
{ACAD_REACTORS
330
F73
102
}
330
1F
100
AcDbEntity
  8
寸法
  6
Continuous
 62
     0
100
AcDbDimension
  2
*D6
 10
25356.35115001543
 20
49766.04982843469
 30
0.0
 11
24606.35115001543
 21
50166.04982843469
 31
0.0
 70
    32
 71
     5
 42
1500.0
  3
30°矢印
100
AcDbAlignedDimension
 13
23856.35115001543
 23
43903.78943549642
 33
0.0
 14
25356.35115001543
 24
42903.78943549642
 34
0.0
100
AcDbRotatedDimension
1001
ACAD
1000
DSTYLE
1002
{
1070
    40
1040
1.0
1070
   279
1070
     1
1002
}
  0
DIMENSION
  5
F74
102
{ACAD_XDICTIONARY
360
F81
102
}
102
{ACAD_REACTORS
330
F8B
102
}
330
1F
100
AcDbEntity
  8
寸法
  6
Continuous
 62
     0
100
AcDbDimension
  2
*D7
 10
26856.35115001543
 20
49766.04982843469
 30
0.0
 11
26106.35115001543
 21
50166.04982843469
 31
0.0
 70
    32
 71
     5
 42
1500.0
  3
30°矢印
100
AcDbAlignedDimension
 13
25356.35115001543
 23
42903.78943549642
 33
0.0
 14
26856.35115001543
 24
41903.78943549642
 34
0.0
100
AcDbRotatedDimension
1001
ACAD
1000
DSTYLE
1002
{
1070
    40
1040
1.0
1070
   279
1070
     1
1002
}
  0
DIMENSION
  5
F8C
102
{ACAD_XDICTIONARY
360
F99
102
}
102
{ACAD_REACTORS
330
FA3
102
}
330
1F
100
AcDbEntity
  8
寸法
  6
Continuous
 62
     0
100
AcDbDimension
  2
*D8
 10
28356.35115001543
 20
49766.04982843469
 30
0.0
 11
27606.35115001543
 21
50166.04982843469
 31
0.0
 70
    32
 71
     5
 42
1500.0
  3
30°矢印
100
AcDbAlignedDimension
 13
26856.35115001543
 23
41903.78943549642
 33
0.0
 14
28356.35115001543
 24
40903.78943549642
 34
0.0
100
AcDbRotatedDimension
1001
ACAD
1000
DSTYLE
1002
{
1070
    40
1040
1.0
1070
   279
1070
     1
1002
}
  0
DIMENSION
  5
FA4
102
{ACAD_XDICTIONARY
360
FB1
102
}
102
{ACAD_REACTORS
330
FBB
102
}
330
1F
100
AcDbEntity
  8
寸法
  6
Continuous
 62
     0
100
AcDbDimension
  2
*D9
 10
29856.35115001543
 20
49766.04982843469
 30
0.0
 11
29106.35115001543
 21
50166.04982843469
 31
0.0
 70
    32
 71
     5
 42
1500.0
  3
30°矢印
100
AcDbAlignedDimension
 13
28356.35115001543
 23
40903.78943549642
 33
0.0
 14
29856.35115001543
 24
39903.78943549643
 34
0.0
100
AcDbRotatedDimension
1001
ACAD
1000
DSTYLE
1002
{
1070
    40
1040
1.0
1070
   279
1070
     1
1002
}
  0
DIMENSION
  5
FBC
102
{ACAD_XDICTIONARY
360
FC9
102
}
102
{ACAD_REACTORS
330
FD3
102
}
330
1F
100
AcDbEntity
  8
寸法
  6
Continuous
 62
     0
100
AcDbDimension
  2
*D10
 10
31356.35115001543
 20
49766.04982843469
 30
0.0
 11
30606.35115001543
 21
50166.04982843469
 31
0.0
 70
    32
 71
     5
 42
1500.0
  3
30°矢印
100
AcDbAlignedDimension
 13
29856.35115001543
 23
39903.78943549643
 33
0.0
 14
31356.35115001543
 24
38903.78943549642
 34
0.0
100
AcDbRotatedDimension
1001
ACAD
1000
DSTYLE
1002
{
1070
    40
1040
1.0
1070
   279
1070
     1
1002
}
  0
DIMENSION
  5
FD4
102
{ACAD_XDICTIONARY
360
FE1
102
}
102
{ACAD_REACTORS
330
FEB
102
}
330
1F
100
AcDbEntity
  8
寸法
  6
Continuous
 62
     0
100
AcDbDimension
  2
*D11
 10
32856.35115001543
 20
49766.04982843469
 30
0.0
 11
32106.35115001543
 21
50166.04982843469
 31
0.0
 70
    32
 71
     5
 42
1500.0
  3
30°矢印
100
AcDbAlignedDimension
 13
31356.35115001543
 23
38903.78943549642
 33
0.0
 14
32856.35115001543
 24
37903.78943549642
 34
0.0
100
AcDbRotatedDimension
1001
ACAD
1000
DSTYLE
1002
{
1070
    40
1040
1.0
1070
   279
1070
     1
1002
}
  0
DIMENSION
  5
FEC
102
{ACAD_XDICTIONARY
360
FF9
102
}
102
{ACAD_REACTORS
330
1003
102
}
330
1F
100
AcDbEntity
  8
寸法
  6
Continuous
 62
     0
100
AcDbDimension
  2
*D12
 10
34356.35115001543
 20
49766.04982843469
 30
0.0
 11
33606.35115001543
 21
50166.04982843469
 31
0.0
 70
    32
 71
     5
 42
1500.0
  3
30°矢印
100
AcDbAlignedDimension
 13
32856.35115001543
 23
37903.78943549642
 33
0.0
 14
34356.35115001543
 24
36903.78943549642
 34
0.0
100
AcDbRotatedDimension
1001
ACAD
1000
DSTYLE
1002
{
1070
    40
1040
1.0
1070
   279
1070
     1
1002
}
  0
DIMENSION
  5
1004
102
{ACAD_XDICTIONARY
360
1011
102
}
102
{ACAD_REACTORS
330
101B
102
}
330
1F
100
AcDbEntity
  8
寸法
  6
Continuous
 62
     0
100
AcDbDimension
  2
*D13
 10
35856.35115001543
 20
49766.04982843469
 30
0.0
 11
35106.35115001543
 21
50166.04982843469
 31
0.0
 70
    32
 71
     5
 42
1500.0
  3
30°矢印
100
AcDbAlignedDimension
 13
34356.35115001543
 23
36903.78943549642
 33
0.0
 14
35856.35115001543
 24
35903.78943549642
 34
0.0
100
AcDbRotatedDimension
1001
ACAD
1000
DSTYLE
1002
{
1070
    40
1040
1.0
1070
   279
1070
     1
1002
}
  0
LINE
  5
10AF
330
1F
100
AcDbEntity
  8
詳細
  6
Continuous
100
AcDbLine
 10
24209.86181213422
 20
35903.78943549642
 30
0.0
 11
24209.86181213422
 21
34903.78943549643
 31
0.0
  0
LINE
  5
10B0
330
1F
100
AcDbEntity
  8
詳細
  6
Continuous
100
AcDbLine
 10
6209.861812134215
 20
45903.78943549642
 30
0.0
 11
6209.861812134215
 21
44903.78943549642
 31
0.0
  0
LINE
  5
10B1
330
1F
100
AcDbEntity
  8
詳細
  6
Continuous
100
AcDbLine
 10
7709.861812134215
 20
44903.78943549642
 30
0.0
 11
6209.861812134215
 21
44903.78943549642
 31
0.0
  0
LINE
  5
10B2
330
1F
100
AcDbEntity
  8
詳細
  6
Continuous
100
AcDbLine
 10
24209.86181213422
 20
34903.78943549643
 30
0.0
 11
22709.86181213422
 21
34903.78943549643
 31
0.0
  0
LINE
  5
10B3
330
1F
100
AcDbEntity
  8
詳細
  6
Continuous
100
AcDbLine
 10
22709.86181213422
 20
36903.78943549642
 30
0.0
 11
22709.86181213422
 21
35903.78943549642
 31
0.0
  0
LINE
  5
10B4
330
1F
100
AcDbEntity
  8
詳細
  6
Continuous
100
AcDbLine
 10
24209.86181213422
 20
35903.78943549642
 30
0.0
 11
22709.86181213422
 21
35903.78943549642
 31
0.0
  0
LINE
  5
10B5
330
1F
100
AcDbEntity
  8
詳細
  6
Continuous
100
AcDbLine
 10
22709.86181213422
 20
36903.78943549642
 30
0.0
 11
21209.86181213421
 21
36903.78943549642
 31
0.0
  0
LINE
  5
10B6
330
1F
100
AcDbEntity
  8
詳細
  6
Continuous
100
AcDbLine
 10
21209.86181213421
 20
37903.78943549642
 30
0.0
 11
19709.86181213421
 21
37903.78943549642
 31
0.0
  0
LINE
  5
10B7
330
1F
100
AcDbEntity
  8
詳細
  6
Continuous
100
AcDbLine
 10
19709.86181213421
 20
38903.78943549642
 30
0.0
 11
18209.86181213421
 21
38903.78943549642
 31
0.0
  0
LINE
  5
10B8
330
1F
100
AcDbEntity
  8
詳細
  6
Continuous
100
AcDbLine
 10
18209.86181213421
 20
39903.78943549643
 30
0.0
 11
16709.86181213421
 21
39903.78943549643
 31
0.0
  0
LINE
  5
10B9
330
1F
100
AcDbEntity
  8
詳細
  6
Continuous
100
AcDbLine
 10
16709.86181213421
 20
40903.78943549642
 30
0.0
 11
15209.86181213421
 21
40903.78943549642
 31
0.0
  0
LINE
  5
10BA
330
1F
100
AcDbEntity
  8
詳細
  6
Continuous
100
AcDbLine
 10
15209.86181213421
 20
41903.78943549642
 30
0.0
 11
13709.86181213421
 21
41903.78943549642
 31
0.0
  0
LINE
  5
10BB
330
1F
100
AcDbEntity
  8
詳細
  6
Continuous
100
AcDbLine
 10
13709.86181213421
 20
42903.78943549642
 30
0.0
 11
12209.86181213421
 21
42903.78943549642
 31
0.0
  0
LINE
  5
10BC
330
1F
100
AcDbEntity
  8
詳細
  6
Continuous
100
AcDbLine
 10
12209.86181213421
 20
43903.78943549642
 30
0.0
 11
10709.86181213421
 21
43903.78943549642
 31
0.0
  0
LINE
  5
10BD
330
1F
100
AcDbEntity
  8
詳細
  6
Continuous
100
AcDbLine
 10
10709.86181213421
 20
44903.78943549642
 30
0.0
 11
9209.861812134215
 21
44903.78943549642
 31
0.0
  0
LINE
  5
10BE
102
{ACAD_REACTORS
330
10E1
102
}
330
1F
100
AcDbEntity
  8
詳細
  6
Continuous
100
AcDbLine
 10
9209.861812134215
 20
45903.78943549642
 30
0.0
 11
6209.861812134215
 21
45903.78943549642
 31
0.0
  0
LINE
  5
10BF
330
1F
100
AcDbEntity
  8
詳細
  6
Continuous
100
AcDbLine
 10
21209.86181213421
 20
37903.78943549642
 30
0.0
 11
21209.86181213421
 21
36903.78943549642
 31
0.0
  0
LINE
  5
10C0
330
1F
100
AcDbEntity
  8
詳細
  6
Continuous
100
AcDbLine
 10
19709.86181213421
 20
38903.78943549642
 30
0.0
 11
19709.86181213421
 21
37903.78943549642
 31
0.0
  0
LINE
  5
10C1
330
1F
100
AcDbEntity
  8
詳細
  6
Continuous
100
AcDbLine
 10
18209.86181213421
 20
39903.78943549643
 30
0.0
 11
18209.86181213421
 21
38903.78943549642
 31
0.0
  0
LINE
  5
10C2
330
1F
100
AcDbEntity
  8
詳細
  6
Continuous
100
AcDbLine
 10
16709.86181213421
 20
40903.78943549642
 30
0.0
 11
16709.86181213421
 21
39903.78943549643
 31
0.0
  0
LINE
  5
10C3
330
1F
100
AcDbEntity
  8
詳細
  6
Continuous
100
AcDbLine
 10
15209.86181213421
 20
41903.78943549642
 30
0.0
 11
15209.86181213421
 21
40903.78943549642
 31
0.0
  0
LINE
  5
10C4
330
1F
100
AcDbEntity
  8
詳細
  6
Continuous
100
AcDbLine
 10
13709.86181213421
 20
42903.78943549642
 30
0.0
 11
13709.86181213421
 21
41903.78943549642
 31
0.0
  0
LINE
  5
10C5
330
1F
100
AcDbEntity
  8
詳細
  6
Continuous
100
AcDbLine
 10
12209.86181213421
 20
43903.78943549642
 30
0.0
 11
12209.86181213421
 21
42903.78943549642
 31
0.0
  0
LINE
  5
10C6
330
1F
100
AcDbEntity
  8
詳細
  6
Continuous
100
AcDbLine
 10
10709.86181213421
 20
44903.78943549642
 30
0.0
 11
10709.86181213421
 21
43903.78943549642
 31
0.0
  0
LINE
  5
10C7
102
{ACAD_REACTORS
330
10E1
102
}
330
1F
100
AcDbEntity
  8
詳細
  6
Continuous
100
AcDbLine
 10
9209.861812134215
 20
45903.78943549642
 30
0.0
 11
9209.861812134215
 21
44903.78943549642
 31
0.0
  0
LINE
  5
10C8
330
1F
100
AcDbEntity
  8
詳細
  6
Continuous
100
AcDbLine
 10
7709.861812134215
 20
44903.78943549642
 30
0.0
 11
22709.86181213422
 21
34903.78943549643
 31
0.0
  0
LINE
  5
10C9
330
1F
100
AcDbEntity
  8
詳細
  6
Continuous
100
AcDbLine
 10
13709.86181213421
 20
41903.78943549642
 30
0.0
 11
15209.86181213421
 21
41903.78943549642
 31
0.0
  0
DIMENSION
  5
10CA
102
{ACAD_XDICTIONARY
360
10D7
102
}
102
{ACAD_REACTORS
330
10E1
102
}
330
1F
100
AcDbEntity
  8
寸法
  6
Continuous
 62
     0
100
AcDbDimension
  2
*D14
 10
9209.861812134215
 20
49766.04982843469
 30
0.0
 11
7709.861812134215
 21
50166.04982843469
 31
0.0
 70
    32
 71
     5
 42
3000.0
  3
30°矢印
100
AcDbAlignedDimension
 13
6209.861812134215
 23
45903.78943549642
 33
0.0
 14
9209.861812134215
 24
45903.78943549642
 34
0.0
100
AcDbRotatedDimension
1001
ACAD
1000
DSTYLE
1002
{
1070
    40
1040
1.0
1002
}
  0
LINE
  5
1100
330
1F
100
AcDbEntity
  8
詳細
  6
Continuous
100
AcDbLine
 10
57679.21818653992
 20
35903.78943549642
 30
0.0
 11
57679.21818653992
 21
34903.78943549643
 31
0.0
  0
LINE
  5
1101
330
1F
100
AcDbEntity
  8
詳細
  6
Continuous
100
AcDbLine
 10
57679.21818653992
 20
34903.78943549643
 30
0.0
 11
56179.21818653991
 21
34903.78943549643
 31
0.0
  0
LINE
  5
1102
330
1F
100
AcDbEntity
  8
詳細
  6
Continuous
100
AcDbLine
 10
56179.21818653991
 20
36903.78943549642
 30
0.0
 11
56179.21818653991
 21
35903.78943549642
 31
0.0
  0
LINE
  5
1103
330
1F
100
AcDbEntity
  8
詳細
  6
Continuous
100
AcDbLine
 10
57679.21818653992
 20
35903.78943549642
 30
0.0
 11
56179.21818653991
 21
35903.78943549642
 31
0.0
  0
LINE
  5
1104
330
1F
100
AcDbEntity
  8
詳細
  6
Continuous
100
AcDbLine
 10
56179.21818653991
 20
36903.78943549642
 30
0.0
 11
54679.21818653992
 21
36903.78943549642
 31
0.0
  0
LINE
  5
1105
330
1F
100
AcDbEntity
  8
詳細
  6
Continuous
100
AcDbLine
 10
54679.21818653992
 20
37903.78943549642
 30
0.0
 11
53179.21818653991
 21
37903.78943549642
 31
0.0
  0
LINE
  5
1106
330
1F
100
AcDbEntity
  8
詳細
  6
Continuous
100
AcDbLine
 10
53179.21818653991
 20
38903.78943549642
 30
0.0
 11
51679.21818653992
 21
38903.78943549642
 31
0.0
  0
LINE
  5
1107
330
1F
100
AcDbEntity
  8
詳細
  6
Continuous
100
AcDbLine
 10
51679.21818653992
 20
39903.78943549643
 30
0.0
 11
50179.21818653992
 21
39903.78943549643
 31
0.0
  0
LINE
  5
1108
330
1F
100
AcDbEntity
  8
詳細
  6
Continuous
100
AcDbLine
 10
50179.21818653992
 20
40903.78943549642
 30
0.0
 11
48679.21818653991
 21
40903.78943549642
 31
0.0
  0
LINE
  5
1109
330
1F
100
AcDbEntity
  8
詳細
  6
Continuous
100
AcDbLine
 10
48679.21818653991
 20
41903.78943549642
 30
0.0
 11
47179.21818653992
 21
41903.78943549642
 31
0.0
  0
LINE
  5
110A
330
1F
100
AcDbEntity
  8
詳細
  6
Continuous
100
AcDbLine
 10
54679.21818653992
 20
37903.78943549642
 30
0.0
 11
54679.21818653992
 21
36903.78943549642
 31
0.0
  0
LINE
  5
110B
330
1F
100
AcDbEntity
  8
詳細
  6
Continuous
100
AcDbLine
 10
53179.21818653991
 20
38903.78943549642
 30
0.0
 11
53179.21818653991
 21
37903.78943549642
 31
0.0
  0
LINE
  5
110C
330
1F
100
AcDbEntity
  8
詳細
  6
Continuous
100
AcDbLine
 10
51679.21818653992
 20
39903.78943549643
 30
0.0
 11
51679.21818653992
 21
38903.78943549642
 31
0.0
  0
LINE
  5
110D
330
1F
100
AcDbEntity
  8
詳細
  6
Continuous
100
AcDbLine
 10
50179.21818653992
 20
40903.78943549642
 30
0.0
 11
50179.21818653992
 21
39903.78943549643
 31
0.0
  0
LINE
  5
110E
330
1F
100
AcDbEntity
  8
詳細
  6
Continuous
100
AcDbLine
 10
48679.21818653991
 20
41903.78943549642
 30
0.0
 11
48679.21818653991
 21
40903.78943549642
 31
0.0
  0
LINE
  5
110F
330
1F
100
AcDbEntity
  8
詳細
  6
Continuous
100
AcDbLine
 10
41179.21818653991
 20
44903.78943549642
 30
0.0
 11
56179.21818653991
 21
34903.78943549643
 31
0.0
  0
LINE
  5
1110
330
1F
100
AcDbEntity
  8
詳細
  6
Continuous
100
AcDbLine
 10
47179.21818653992
 20
41903.78943549642
 30
0.0
 11
48679.21818653991
 21
41903.78943549642
 31
0.0
  0
LINE
  5
111A
330
1F
100
AcDbEntity
  8
詳細
  6
Continuous
100
AcDbLine
 10
39679.21818653992
 20
45903.78943549642
 30
0.0
 11
39679.21818653992
 21
44903.78943549642
 31
0.0
  0
LINE
  5
111B
330
1F
100
AcDbEntity
  8
詳細
  6
Continuous
100
AcDbLine
 10
41179.21818653991
 20
44903.78943549642
 30
0.0
 11
39679.21818653992
 21
44903.78943549642
 31
0.0
  0
LINE
  5
111C
330
1F
100
AcDbEntity
  8
詳細
  6
Continuous
100
AcDbLine
 10
45679.21818653991
 20
43903.78943549642
 30
0.0
 11
44179.21818653992
 21
43903.78943549642
 31
0.0
  0
LINE
  5
111D
330
1F
100
AcDbEntity
  8
詳細
  6
Continuous
100
AcDbLine
 10
44179.21818653992
 20
44903.78943549642
 30
0.0
 11
42679.21818653992
 21
44903.78943549642
 31
0.0
  0
LINE
  5
111E
330
1F
100
AcDbEntity
  8
詳細
  6
Continuous
100
AcDbLine
 10
42679.21818653992
 20
45903.78943549642
 30
0.0
 11
39679.21818653992
 21
45903.78943549642
 31
0.0
  0
LINE
  5
111F
330
1F
100
AcDbEntity
  8
詳細
  6
Continuous
100
AcDbLine
 10
44179.21818653992
 20
44903.78943549642
 30
0.0
 11
44179.21818653992
 21
43903.78943549642
 31
0.0
  0
LINE
  5
1120
330
1F
100
AcDbEntity
  8
詳細
  6
Continuous
100
AcDbLine
 10
42679.21818653992
 20
45903.78943549642
 30
0.0
 11
42679.21818653992
 21
44903.78943549642
 31
0.0
  0
LINE
  5
11A8
330
1F
100
AcDbEntity
  8
詳細
  6
Continuous
100
AcDbLine
 10
45679.21818653991
 20
43903.78943549642
 30
0.0
 11
45679.21818653991
 21
42903.78943549642
 31
0.0
  0
LINE
  5
11A9
330
1F
100
AcDbEntity
  8
詳細
  6
Continuous
100
AcDbLine
 10
47179.21818653992
 20
42903.78943549642
 30
0.0
 11
45679.21818653991
 21
42903.78943549642
 31
0.0
  0
LINE
  5
11AA
330
1F
100
AcDbEntity
  8
詳細
  6
Continuous
100
AcDbLine
 10
47179.21818653992
 20
42903.78943549642
 30
0.0
 11
47179.21818653992
 21
41903.78943549642
 31
0.0
  0
DIMENSION
  5
1547
102
{ACAD_XDICTIONARY
360
1554
102
}
102
{ACAD_REACTORS
330
155E
102
}
330
1F
100
AcDbEntity
  8
寸法
  6
Continuous
 62
     0
100
AcDbDimension
  2
*D27
 10
20491.83782483622
 20
27443.86339397844
 30
0.0
 11
15491.83782483622
 21
27843.86339397844
 31
0.0
 70
    32
 71
     5
 42
9999.999999999985
  3
30°矢印
100
AcDbAlignedDimension
 13
10491.83782483623
 23
24165.9416122921
 33
0.0
 14
20491.83782483622
 24
24165.9416122921
 34
0.0
100
AcDbRotatedDimension
1001
ACAD
1000
DSTYLE
1002
{
1070
    40
1040
1.0
1002
}
  0
DIMENSION
  5
1577
102
{ACAD_XDICTIONARY
360
1584
102
}
102
{ACAD_REACTORS
330
158E
102
}
330
1F
100
AcDbEntity
  8
寸法
  6
Continuous
 62
     0
100
AcDbDimension
  2
*D28
 10
15491.83782483622
 20
11749.1699983235
 30
0.0
 11
12991.83782483622
 21
12149.1699983235
 31
0.0
 70
    32
 71
     5
 42
4999.999999999992
  3
30°矢印
100
AcDbAlignedDimension
 13
10491.83782483622
 23
14165.94161229209
 33
0.0
 14
15491.83782483622
 24
14165.94161229209
 34
0.0
100
AcDbRotatedDimension
1001
ACAD
1000
DSTYLE
1002
{
1070
    40
1040
1.0
1002
}
  0
DIMENSION
  5
158F
102
{ACAD_XDICTIONARY
360
159C
102
}
102
{ACAD_REACTORS
330
15A6
102
}
330
1F
100
AcDbEntity
  8
寸法
  6
Continuous
 62
     0
100
AcDbDimension
  2
*D29
 10
20491.83782483622
 20
11749.1699983235
 30
0.0
 11
17991.83782483622
 21
12149.1699983235
 31
0.0
 70
    32
 71
     5
 42
5000.0
  3
30°矢印
100
AcDbAlignedDimension
 13
15491.83782483622
 23
14165.94161229209
 33
0.0
 14
20491.83782483622
 24
21165.94161229212
 34
0.0
100
AcDbRotatedDimension
1001
ACAD
1000
DSTYLE
1002
{
1070
    40
1040
1.0
1070
   279
1070
     1
1002
}
  0
CIRCLE
  5
1719
102
{ACAD_REACTORS
330
174A
102
}
330
1F
100
AcDbEntity
  8
詳細
  6
Continuous
100
AcDbCircle
 10
41565.7592655429
 20
22136.40741414389
 30
0.0
 40
2000.0
  0
CIRCLE
  5
171A
102
{ACAD_REACTORS
330
1985
102
}
330
1F
100
AcDbEntity
  8
詳細
  6
Continuous
100
AcDbCircle
 10
47024.79016606734
 20
22226.08484665981
 30
0.0
 40
2000.0
  0
DIMENSION
  5
173B
102
{ACAD_XDICTIONARY
360
1744
102
}
102
{ACAD_REACTORS
330
174A
102
}
330
1F
100
AcDbEntity
  8
寸法
  6
Continuous
 62
     0
100
AcDbDimension
  2
*D30
 10
41565.7592655429
 20
22136.40741414389
 30
0.0
 11
41565.75926554289
 21
22136.40741414389
 31
0.0
 70
   164
 71
     5
 42
1999.999999999993
  3
30°矢印
100
AcDbRadialDimension
 15
43565.75926554289
 25
22136.40741414391
 35
0.0
 40
0.0
1001
ACAD
1000
DSTYLE
1002
{
1070
    40
1040
1.0
1070
   288
1070
     1
1002
}
  0
DIMENSION
  5
1976
102
{ACAD_XDICTIONARY
360
197F
102
}
102
{ACAD_REACTORS
330
1985
102
}
330
1F
100
AcDbEntity
  8
寸法
  6
Continuous
 62
     0
100
AcDbDimension
  2
*D31
 10
45033.27706972862
 20
22410.13806480957
 30
0.0
 11
47638.84003743844
 21
22169.33510439697
 31
0.0
 70
   163
 71
     5
 42
3999.999999999978
  3
30°矢印
100
AcDbDiametricDimension
 15
49016.30326240607
 25
22042.03162851005
 35
0.0
 40
0.0
1001
ACAD
1000
DSTYLE
1002
{
1070
    40
1040
1.0
1070
   288
1070
     1
1002
}
  0
DIMENSION
  5
19A0
102
{ACAD_XDICTIONARY
360
19AD
102
}
102
{ACAD_REACTORS
330
19B7
102
}
330
1F
100
AcDbEntity
  8
寸法
  6
Continuous
 62
     0
100
AcDbDimension
  2
*D32
 10
7838.8911830851
 20
21165.94161229212
 30
0.0
 11
7438.891183085097
 21
22665.94161229211
 31
0.0
 70
    32
 71
     5
 42
2999.999999999986
  3
30°矢印
100
AcDbAlignedDimension
 13
10491.83782483623
 23
24165.9416122921
 33
0.0
 14
20491.83782483622
 24
21165.94161229212
 34
0.0
 50
90.0
100
AcDbRotatedDimension
1001
ACAD
1000
DSTYLE
1002
{
1070
    40
1040
1.0
1002
}
  0
DIMENSION
  5
19CA
330
1F
100
AcDbEntity
  8
寸法
  6
Continuous
 62
     0
100
AcDbDimension
  2
*D33
 10
7838.891183085097
 20
14165.94161229209
 30
0.0
 11
7438.891183085096
 21
17665.94161229211
 31
0.0
 70
    32
 71
     5
 42
7000.000000000024
  3
30°矢印
100
AcDbAlignedDimension
 13
20491.83782483622
 23
21165.94161229212
 33
0.0
 14
10491.83782483622
 24
14165.94161229209
 34
0.0
 50
90.0
100
AcDbRotatedDimension
1001
ACAD
1000
DSTYLE
1002
{
1070
    40
1040
1.0
1070
   279
1070
     1
1002
}
  0
DIMENSION
  5
19E4
102
{ACAD_XDICTIONARY
360
19F1
102
}
102
{ACAD_REACTORS
330
19FB
102
}
330
1F
100
AcDbEntity
  8
寸法
  6
Continuous
 62
     0
100
AcDbDimension
  2
*D34
 10
6838.891183085097
 20
14165.94161229209
 30
0.0
 11
6438.891183085096
 21
19165.9416122921
 31
0.0
 70
    32
 71
     5
 42
10000.00000000001
  3
30°矢印
100
AcDbAlignedDimension
 13
10491.83782483623
 23
24165.9416122921
 33
0.0
 14
9491.837824836228
 24
14165.94161229209
 34
0.0
 50
90.0
100
AcDbRotatedDimension
1001
ACAD
1000
DSTYLE
1002
{
1070
    40
1040
1.0
1002
}
  0
DIMENSION
  5
19FC
330
1F
100
AcDbEntity
  8
寸法
  6
Continuous
 62
     0
100
AcDbDimension
  2
*D35
 10
22250.03559244223
 20
19910.08606400211
 30
0.0
 11
19424.54220395954
 21
16642.58134148974
 31
0.0
 70
    33
 71
     5
 42
8602.325267042644
  3
30°矢印
100
AcDbAlignedDimension
 13
15491.83782483622
 23
14165.94161229209
 33
0.0
 14
20491.83782483622
 24
21165.94161229212
 34
0.0
1001
ACAD
1000
DSTYLE
1002
{
1070
    40
1040
1.0
1002
}
  0
LINE
  5
204D
102
{ACAD_REACTORS
330
20D7
102
}
330
1F
100
AcDbEntity
  8
詳細
  6
Continuous
100
AcDbLine
 10
50489.7265474383
 20
22062.7445362094
 30
0.0
 11
53788.67413518968
 21
23959.60740835469
 31
0.0
  0
LINE
  5
204F
102
{ACAD_REACTORS
330
20D7
102
}
330
1F
100
AcDbEntity
  8
詳細
  6
Continuous
100
AcDbLine
 10
50489.7265474383
 20
22062.7445362094
 30
0.0
 11
54023.25907322236
 21
20650.19654350969
 31
0.0
  0
ARC
  5
2050
330
1F
100
AcDbEntity
  8
詳細
  6
Continuous
100
AcDbCircle
 10
50489.7265474383
 20
22062.7445362094
 30
0.0
 40
3805.409825820851
100
AcDbArc
 50
338.2106830431799
 51
29.89848427887493
  0
DIMENSION
  5
20BC
102
{ACAD_XDICTIONARY
360
20CB
102
}
102
{ACAD_REACTORS
330
20D7
102
}
330
1F
100
AcDbEntity
  8
寸法
  6
Continuous
 62
     0
100
AcDbDimension
  2
*D36
 10
53788.67413518968
 20
23959.60740835469
 30
0.0
 11
55932.57050052738
 21
22448.55616963945
 31
0.0
 70
    34
 71
     5
 42
0.9021223146792697
  3
30°矢印角度記入
100
AcDb2LineAngularDimension
 13
50489.7265474383
 23
22062.7445362094
 33
0.0
 14
54023.25907322236
 24
20650.19654350969
 34
0.0
 15
50489.7265474383
 25
22062.7445362094
 35
0.0
 16
55530.22126997186
 26
21660.73305486212
 36
0.0
1001
ACAD
1000
DSTYLE
1002
{
1070
    40
1040
1.0
1002
}
  0
LINE
  5
333D
330
1F
100
AcDbEntity
  8
詳細
  6
Continuous
100
AcDbLine
 10
64992.78166279641
 20
42903.78943549642
 30
0.0
 11
64992.78166279641
 21
41903.78943549642
 31
0.0
  0
LINE
  5
333E
330
1F
100
AcDbEntity
  8
詳細
  6
Continuous
100
AcDbLine
 10
64992.78166279641
 20
42903.78943549642
 30
0.0
 11
63492.78166279642
 21
42903.78943549642
 31
0.0
  0
LINE
  5
333F
330
1F
100
AcDbEntity
  8
詳細
  6
Continuous
100
AcDbLine
 10
63492.78166279642
 20
43903.78943549642
 30
0.0
 11
63492.78166279642
 21
42903.78943549642
 31
0.0
  0
LINE
  5
3340
330
1F
100
AcDbEntity
  8
詳細
  6
Continuous
100
AcDbLine
 10
60492.78166279642
 20
45903.78943549642
 30
0.0
 11
60492.78166279642
 21
44903.78943549642
 31
0.0
  0
LINE
  5
3341
330
1F
100
AcDbEntity
  8
詳細
  6
Continuous
100
AcDbLine
 10
61992.78166279642
 20
44903.78943549642
 30
0.0
 11
61992.78166279642
 21
43903.78943549642
 31
0.0
  0
LINE
  5
3342
330
1F
100
AcDbEntity
  8
詳細
  6
Continuous
100
AcDbLine
 10
60492.78166279642
 20
45903.78943549642
 30
0.0
 11
57492.78166279641
 21
45903.78943549642
 31
0.0
  0
LINE
  5
3343
330
1F
100
AcDbEntity
  8
詳細
  6
Continuous
100
AcDbLine
 10
61992.78166279642
 20
44903.78943549642
 30
0.0
 11
60492.78166279642
 21
44903.78943549642
 31
0.0
  0
LINE
  5
3344
330
1F
100
AcDbEntity
  8
詳細
  6
Continuous
100
AcDbLine
 10
63492.78166279642
 20
43903.78943549642
 30
0.0
 11
61992.78166279642
 21
43903.78943549642
 31
0.0
  0
LINE
  5
3345
330
1F
100
AcDbEntity
  8
詳細
  6
Continuous
100
AcDbLine
 10
58992.78166279642
 20
44903.78943549642
 30
0.0
 11
57492.78166279641
 21
44903.78943549642
 31
0.0
  0
LINE
  5
3346
330
1F
100
AcDbEntity
  8
詳細
  6
Continuous
100
AcDbLine
 10
57492.78166279641
 20
45903.78943549642
 30
0.0
 11
57492.78166279641
 21
44903.78943549642
 31
0.0
  0
LINE
  5
3347
330
1F
100
AcDbEntity
  8
詳細
  6
Continuous
100
AcDbLine
 10
64992.78166279641
 20
41903.78943549642
 30
0.0
 11
66492.78166279642
 21
41903.78943549642
 31
0.0
  0
LINE
  5
3348
330
1F
100
AcDbEntity
  8
詳細
  6
Continuous
100
AcDbLine
 10
58992.78166279642
 20
44903.78943549642
 30
0.0
 11
73992.78166279642
 21
34903.78943549643
 31
0.0
  0
LINE
  5
3349
330
1F
100
AcDbEntity
  8
詳細
  6
Continuous
100
AcDbLine
 10
66492.78166279642
 20
41903.78943549642
 30
0.0
 11
66492.78166279642
 21
40903.78943549642
 31
0.0
  0
LINE
  5
334A
330
1F
100
AcDbEntity
  8
詳細
  6
Continuous
100
AcDbLine
 10
67992.78166279642
 20
40903.78943549642
 30
0.0
 11
67992.78166279642
 21
39903.78943549643
 31
0.0
  0
LINE
  5
334B
330
1F
100
AcDbEntity
  8
詳細
  6
Continuous
100
AcDbLine
 10
69492.78166279642
 20
39903.78943549643
 30
0.0
 11
69492.78166279642
 21
38903.78943549642
 31
0.0
  0
LINE
  5
334C
330
1F
100
AcDbEntity
  8
詳細
  6
Continuous
100
AcDbLine
 10
70992.78166279642
 20
38903.78943549642
 30
0.0
 11
70992.78166279642
 21
37903.78943549642
 31
0.0
  0
LINE
  5
334D
330
1F
100
AcDbEntity
  8
詳細
  6
Continuous
100
AcDbLine
 10
72492.78166279641
 20
37903.78943549642
 30
0.0
 11
72492.78166279641
 21
36903.78943549642
 31
0.0
  0
LINE
  5
334E
330
1F
100
AcDbEntity
  8
詳細
  6
Continuous
100
AcDbLine
 10
66492.78166279642
 20
41903.78943549642
 30
0.0
 11
64992.78166279641
 21
41903.78943549642
 31
0.0
  0
LINE
  5
334F
330
1F
100
AcDbEntity
  8
詳細
  6
Continuous
100
AcDbLine
 10
67992.78166279642
 20
40903.78943549642
 30
0.0
 11
66492.78166279642
 21
40903.78943549642
 31
0.0
  0
LINE
  5
3350
330
1F
100
AcDbEntity
  8
詳細
  6
Continuous
100
AcDbLine
 10
69492.78166279642
 20
39903.78943549643
 30
0.0
 11
67992.78166279642
 21
39903.78943549643
 31
0.0
  0
LINE
  5
3351
330
1F
100
AcDbEntity
  8
詳細
  6
Continuous
100
AcDbLine
 10
70992.78166279642
 20
38903.78943549642
 30
0.0
 11
69492.78166279642
 21
38903.78943549642
 31
0.0
  0
LINE
  5
3352
330
1F
100
AcDbEntity
  8
詳細
  6
Continuous
100
AcDbLine
 10
72492.78166279641
 20
37903.78943549642
 30
0.0
 11
70992.78166279642
 21
37903.78943549642
 31
0.0
  0
LINE
  5
3353
330
1F
100
AcDbEntity
  8
詳細
  6
Continuous
100
AcDbLine
 10
73992.78166279642
 20
36903.78943549642
 30
0.0
 11
72492.78166279641
 21
36903.78943549642
 31
0.0
  0
LINE
  5
3354
330
1F
100
AcDbEntity
  8
詳細
  6
Continuous
100
AcDbLine
 10
75492.78166279642
 20
35903.78943549642
 30
0.0
 11
73992.78166279642
 21
35903.78943549642
 31
0.0
  0
LINE
  5
3355
330
1F
100
AcDbEntity
  8
詳細
  6
Continuous
100
AcDbLine
 10
73992.78166279642
 20
36903.78943549642
 30
0.0
 11
73992.78166279642
 21
35903.78943549642
 31
0.0
  0
LINE
  5
3356
330
1F
100
AcDbEntity
  8
詳細
  6
Continuous
100
AcDbLine
 10
75492.78166279642
 20
34903.78943549643
 30
0.0
 11
73992.78166279642
 21
34903.78943549643
 31
0.0
  0
LINE
  5
3357
330
1F
100
AcDbEntity
  8
詳細
  6
Continuous
100
AcDbLine
 10
75492.78166279642
 20
35903.78943549642
 30
0.0
 11
75492.78166279642
 21
34903.78943549643
 31
0.0
  0
ARC
  5
335B
330
1F
100
AcDbEntity
  8
詳細
  6
Continuous
100
AcDbCircle
 10
69759.20643362627
 20
22062.7445362094
 30
0.0
 40
3805.409825820851
100
AcDbArc
 50
338.2106830431799
 51
29.89848427887493
  0
LINE
  5
335C
330
1F
100
AcDbEntity
  8
詳細
  6
Continuous
100
AcDbLine
 10
69759.20643362627
 20
22062.7445362094
 30
0.0
 11
73292.73895941033
 21
20650.19654350969
 31
0.0
  0
LINE
  5
335D
330
1F
100
AcDbEntity
  8
詳細
  6
Continuous
100
AcDbLine
 10
69759.20643362627
 20
22062.7445362094
 30
0.0
 11
73058.15402137764
 21
23959.60740835469
 31
0.0
  0
CIRCLE
  5
3364
330
1F
100
AcDbEntity
  8
詳細
  6
Continuous
100
AcDbCircle
 10
66294.2700522553
 20
22226.08484665981
 30
0.0
 40
2000.0
  0
CIRCLE
  5
3365
330
1F
100
AcDbEntity
  8
詳細
  6
Continuous
100
AcDbCircle
 10
60835.23915173087
 20
22136.40741414389
 30
0.0
 40
2000.0
  0
LINE
  5
339E
330
1F
100
AcDbEntity
  8
詳細
  6
Continuous
100
AcDbLine
 10
30051.0002156817
 20
14165.94161229209
 30
0.0
 11
35051.0002156817
 21
21165.94161229212
 31
0.0
  0
LINE
  5
339F
330
1F
100
AcDbEntity
  8
詳細
  6
Continuous
100
AcDbLine
 10
35051.0002156817
 20
24165.9416122921
 30
0.0
 11
35051.0002156817
 21
24165.9416122921
 31
0.0
  0
LINE
  5
33A0
330
1F
100
AcDbEntity
  8
詳細
  6
Continuous
100
AcDbLine
 10
25051.00021568171
 20
14165.94161229209
 30
0.0
 11
30051.0002156817
 21
14165.94161229209
 31
0.0
  0
LINE
  5
33A1
330
1F
100
AcDbEntity
  8
詳細
  6
Continuous
100
AcDbLine
 10
35051.0002156817
 20
24165.9416122921
 30
0.0
 11
35051.0002156817
 21
21165.94161229212
 31
0.0
  0
LINE
  5
33A2
330
1F
100
AcDbEntity
  8
詳細
  6
Continuous
100
AcDbLine
 10
25051.00021568171
 20
24165.9416122921
 30
0.0
 11
25051.00021568171
 21
14165.94161229209
 31
0.0
  0
LINE
  5
33A3
330
1F
100
AcDbEntity
  8
詳細
  6
Continuous
100
AcDbLine
 10
25051.00021568171
 20
24165.9416122921
 30
0.0
 11
35051.0002156817
 21
24165.9416122921
 31
0.0
  0
VIEWPORT
  5
B9
102
{ACAD_XDICTIONARY
360
33C0
102
}
330
58
100
AcDbEntity
 67
     1
  8
0
100
AcDbViewport
 10
415.4593176841736
 20
280.1286166124889
 30
0.0
 40
1051.707758850164
 41
601.0987109045501
 68
     2
 69
     1
 12
415.4593176841736
 22
280.1286166124889
 13
0.0
 23
0.0
 14
0.5
 24
0.5
 15
0.5
 25
0.5
 16
0.0
 26
0.0
 36
1.0
 17
0.0
 27
0.0
 37
0.0
 42
50.0
 43
0.0
 44
0.0
 45
601.0987109045501
 50
0.0
 51
0.0
 72
  1000
 90
    32800
  1

281
     0
 71
     1
 74
     0
110
0.0
120
0.0
130
0.0
111
1.0
121
0.0
131
0.0
112
0.0
122
1.0
132
0.0
 79
     0
146
0.0
  0
VIEWPORT
  5
21DD
102
{ACAD_XDICTIONARY
360
33C4
102
}
330
58
100
AcDbEntity
 67
     1
  8
寸法
  6
Continuous
 62
     0
100
AcDbViewport
 10
415.433545982702
 20
280.1290667640383
 30
0.0
 40
840.0132605926083
 41
595.980281850896
 68
     1
 69
     2
 12
42050.00112598096
 22
29700.00079528266
 13
0.0
 23
0.0
 14
0.5
 24
0.5
 15
0.5
 25
0.5
 16
0.0
 26
0.0
 36
1.0
 17
0.0
 27
0.0
 37
0.0
 42
50.0
 43
0.0
 44
0.0
 45
60038.75630872204
 50
0.0
 51
0.0
 72
  1000
 90
    32832
  1

281
     0
 71
     1
 74
     0
110
0.0
120
0.0
130
0.0
111
1.0
121
0.0
131
0.0
112
0.0
122
1.0
132
0.0
 79
     0
146
0.0
  0
ENDSEC
  0
SECTION
  2
OBJECTS
  0
DICTIONARY
  5
C
330
0
100
AcDbDictionary
281
     1
  3
ACAD_COLOR
350
73
  3
ACAD_GROUP
350
D
  3
ACAD_LAYOUT
350
1A
  3
ACAD_MATERIAL
350
72
  3
ACAD_MLINESTYLE
350
17
  3
ACAD_PLOTSETTINGS
350
19
  3
ACAD_PLOTSTYLENAME
350
E
  3
ACDBHEADERROUNDTRIPXREC
350
33B9
  3
AcDbVariableDictionary
350
66
  0
DICTIONARY
  5
F09
330
EFC
100
AcDbDictionary
280
     1
281
     1
  3
ACAD_DIMASSOC
360
F13
  0
DICTIONARY
  5
F39
330
F2C
100
AcDbDictionary
280
     1
281
     1
  3
ACAD_DIMASSOC
360
F43
  0
DICTIONARY
  5
F51
330
F44
100
AcDbDictionary
280
     1
281
     1
  3
ACAD_DIMASSOC
360
F5B
  0
DICTIONARY
  5
F69
330
F5C
100
AcDbDictionary
280
     1
281
     1
  3
ACAD_DIMASSOC
360
F73
  0
DICTIONARY
  5
F81
330
F74
100
AcDbDictionary
280
     1
281
     1
  3
ACAD_DIMASSOC
360
F8B
  0
DICTIONARY
  5
F99
330
F8C
100
AcDbDictionary
280
     1
281
     1
  3
ACAD_DIMASSOC
360
FA3
  0
DICTIONARY
  5
FB1
330
FA4
100
AcDbDictionary
280
     1
281
     1
  3
ACAD_DIMASSOC
360
FBB
  0
DICTIONARY
  5
FC9
330
FBC
100
AcDbDictionary
280
     1
281
     1
  3
ACAD_DIMASSOC
360
FD3
  0
DICTIONARY
  5
FE1
330
FD4
100
AcDbDictionary
280
     1
281
     1
  3
ACAD_DIMASSOC
360
FEB
  0
DICTIONARY
  5
FF9
330
FEC
100
AcDbDictionary
280
     1
281
     1
  3
ACAD_DIMASSOC
360
1003
  0
DICTIONARY
  5
1011
330
1004
100
AcDbDictionary
280
     1
281
     1
  3
ACAD_DIMASSOC
360
101B
  0
DICTIONARY
  5
10D7
330
10CA
100
AcDbDictionary
280
     1
281
     1
  3
ACAD_DIMASSOC
360
10E1
  0
DICTIONARY
  5
1554
330
1547
100
AcDbDictionary
280
     1
281
     1
  3
ACAD_DIMASSOC
360
155E
  0
DICTIONARY
  5
1584
330
1577
100
AcDbDictionary
280
     1
281
     1
  3
ACAD_DIMASSOC
360
158E
  0
DICTIONARY
  5
159C
330
158F
100
AcDbDictionary
280
     1
281
     1
  3
ACAD_DIMASSOC
360
15A6
  0
DICTIONARY
  5
1744
330
173B
100
AcDbDictionary
280
     1
281
     1
  3
ACAD_DIMASSOC
360
174A
  0
DICTIONARY
  5
197F
330
1976
100
AcDbDictionary
280
     1
281
     1
  3
ACAD_DIMASSOC
360
1985
  0
DICTIONARY
  5
19AD
330
19A0
100
AcDbDictionary
280
     1
281
     1
  3
ACAD_DIMASSOC
360
19B7
  0
DICTIONARY
  5
19F1
330
19E4
100
AcDbDictionary
280
     1
281
     1
  3
ACAD_DIMASSOC
360
19FB
  0
DICTIONARY
  5
20CB
330
20BC
100
AcDbDictionary
280
     1
281
     1
  3
ACAD_DIMASSOC
360
20D7
  0
DICTIONARY
  5
33C0
330
B9
100
AcDbDictionary
280
     1
281
     1
  3
ACAD_XREC_ROUNDTRIP
360
33C1
  0
DICTIONARY
  5
33C4
330
21DD
100
AcDbDictionary
280
     1
281
     1
  3
ACAD_XREC_ROUNDTRIP
360
33C5
  0
DICTIONARY
  5
73
102
{ACAD_REACTORS
330
C
102
}
330
C
100
AcDbDictionary
281
     1
  0
DICTIONARY
  5
D
102
{ACAD_REACTORS
330
C
102
}
330
C
100
AcDbDictionary
281
     1
  0
DICTIONARY
  5
1A
102
{ACAD_REACTORS
330
C
102
}
330
C
100
AcDbDictionary
281
     1
  3
Model
350
22
  3
レイアウト1
350
59
  0
DICTIONARY
  5
72
102
{ACAD_REACTORS
330
C
102
}
330
C
100
AcDbDictionary
281
     1
  0
DICTIONARY
  5
17
102
{ACAD_REACTORS
330
C
102
}
330
C
100
AcDbDictionary
281
     1
  3
Standard
350
18
  0
DICTIONARY
  5
19
102
{ACAD_REACTORS
330
C
102
}
330
C
100
AcDbDictionary
281
     1
  3
レイアウト1
350
21D0
  0
ACDBDICTIONARYWDFLT
  5
E
102
{ACAD_REACTORS
330
C
102
}
330
C
100
AcDbDictionary
281
     1
  3
Normal
350
F
100
AcDbDictionaryWithDefault
340
F
  0
DICTIONARY
  5
33B9
102
{ACAD_REACTORS
330
C
102
}
330
C
100
AcDbDictionary
281
     1
  3
COLORDICT
350
33BB
  3
MATERIALDICT
350
33BA
  0
DICTIONARY
  5
66
102
{ACAD_REACTORS
330
C
102
}
330
C
100
AcDbDictionary
281
     1
  3
DIMASSOC
350
67
  3
HIDETEXT
350
6B
  3
PROJECTNAME
350
33B7
  0
DIMASSOC
  5
F13
102
{ACAD_REACTORS
330
F09
102
}
330
F09
100
AcDbDimAssoc
330
EFC
 90
        3
 70
     0
 71
     0
  1
AcDbOsnapPointRef
 72
    13
331
416
 73
     2
 91
        0
 40
0.0
 10
0.0
 20
0.0
 30
2.000000000000000E+50
 75
     0
  1
AcDbOsnapPointRef
 72
    13
331
3F7
 73
     2
 91
        0
 40
0.0
 10
0.0
 20
0.0
 30
2.000000000000000E+50
 75
     0
  0
DIMASSOC
  5
F43
102
{ACAD_REACTORS
330
F39
102
}
330
F39
100
AcDbDimAssoc
330
F2C
 90
        3
 70
     0
 71
     0
  1
AcDbOsnapPointRef
 72
    13
331
3F7
 73
     2
 91
        0
 40
0.0
 10
0.0
 20
0.0
 30
2.000000000000000E+50
 75
     0
  1
AcDbOsnapPointRef
 72
    13
331
404
 73
     2
 91
        0
 40
0.0
 10
0.0
 20
0.0
 30
2.000000000000000E+50
 75
     0
  0
DIMASSOC
  5
F5B
102
{ACAD_REACTORS
330
F51
102
}
330
F51
100
AcDbDimAssoc
330
F44
 90
        3
 70
     0
 71
     0
  1
AcDbOsnapPointRef
 72
    13
331
404
 73
     2
 91
        0
 40
0.0
 10
0.0
 20
0.0
 30
2.000000000000000E+50
 75
     0
  1
AcDbOsnapPointRef
 72
    13
331
405
 73
     2
 91
        0
 40
0.0
 10
0.0
 20
0.0
 30
2.000000000000000E+50
 75
     0
  0
DIMASSOC
  5
F73
102
{ACAD_REACTORS
330
F69
102
}
330
F69
100
AcDbDimAssoc
330
F5C
 90
        3
 70
     0
 71
     0
  1
AcDbOsnapPointRef
 72
    13
331
405
 73
     2
 91
        0
 40
0.0
 10
0.0
 20
0.0
 30
2.000000000000000E+50
 75
     0
  1
AcDbOsnapPointRef
 72
    13
331
406
 73
     2
 91
        0
 40
0.0
 10
0.0
 20
0.0
 30
2.000000000000000E+50
 75
     0
  0
DIMASSOC
  5
F8B
102
{ACAD_REACTORS
330
F81
102
}
330
F81
100
AcDbDimAssoc
330
F74
 90
        3
 70
     0
 71
     0
  1
AcDbOsnapPointRef
 72
    13
331
406
 73
     2
 91
        0
 40
0.0
 10
0.0
 20
0.0
 30
2.000000000000000E+50
 75
     0
  1
AcDbOsnapPointRef
 72
    13
331
407
 73
     2
 91
        0
 40
0.0
 10
0.0
 20
0.0
 30
2.000000000000000E+50
 75
     0
  0
DIMASSOC
  5
FA3
102
{ACAD_REACTORS
330
F99
102
}
330
F99
100
AcDbDimAssoc
330
F8C
 90
        3
 70
     0
 71
     0
  1
AcDbOsnapPointRef
 72
    13
331
407
 73
     2
 91
        0
 40
0.0
 10
0.0
 20
0.0
 30
2.000000000000000E+50
 75
     0
  1
AcDbOsnapPointRef
 72
    13
331
408
 73
     2
 91
        0
 40
0.0
 10
0.0
 20
0.0
 30
2.000000000000000E+50
 75
     0
  0
DIMASSOC
  5
FBB
102
{ACAD_REACTORS
330
FB1
102
}
330
FB1
100
AcDbDimAssoc
330
FA4
 90
        3
 70
     0
 71
     0
  1
AcDbOsnapPointRef
 72
    13
331
408
 73
     2
 91
        0
 40
0.0
 10
0.0
 20
0.0
 30
2.000000000000000E+50
 75
     0
  1
AcDbOsnapPointRef
 72
    13
331
409
 73
     2
 91
        0
 40
0.0
 10
0.0
 20
0.0
 30
2.000000000000000E+50
 75
     0
  0
DIMASSOC
  5
FD3
102
{ACAD_REACTORS
330
FC9
102
}
330
FC9
100
AcDbDimAssoc
330
FBC
 90
        3
 70
     0
 71
     0
  1
AcDbOsnapPointRef
 72
    13
331
409
 73
     2
 91
        0
 40
0.0
 10
0.0
 20
0.0
 30
2.000000000000000E+50
 75
     0
  1
AcDbOsnapPointRef
 72
    13
331
40A
 73
     2
 91
        0
 40
0.0
 10
0.0
 20
0.0
 30
2.000000000000000E+50
 75
     0
  0
DIMASSOC
  5
FEB
102
{ACAD_REACTORS
330
FE1
102
}
330
FE1
100
AcDbDimAssoc
330
FD4
 90
        3
 70
     0
 71
     0
  1
AcDbOsnapPointRef
 72
    13
331
40A
 73
     2
 91
        0
 40
0.0
 10
0.0
 20
0.0
 30
2.000000000000000E+50
 75
     0
  1
AcDbOsnapPointRef
 72
    13
331
40B
 73
     2
 91
        0
 40
0.0
 10
0.0
 20
0.0
 30
2.000000000000000E+50
 75
     0
  0
DIMASSOC
  5
1003
102
{ACAD_REACTORS
330
FF9
102
}
330
FF9
100
AcDbDimAssoc
330
FEC
 90
        3
 70
     0
 71
     0
  1
AcDbOsnapPointRef
 72
    13
331
40B
 73
     2
 91
        0
 40
0.0
 10
0.0
 20
0.0
 30
2.000000000000000E+50
 75
     0
  1
AcDbOsnapPointRef
 72
    13
331
411
 73
     2
 91
        0
 40
0.0
 10
0.0
 20
0.0
 30
2.000000000000000E+50
 75
     0
  0
DIMASSOC
  5
101B
102
{ACAD_REACTORS
330
1011
102
}
330
1011
100
AcDbDimAssoc
330
1004
 90
        3
 70
     0
 71
     0
  1
AcDbOsnapPointRef
 72
    13
331
411
 73
     2
 91
        0
 40
0.0
 10
0.0
 20
0.0
 30
2.000000000000000E+50
 75
     0
  1
AcDbOsnapPointRef
 72
    13
331
418
 73
     2
 91
        0
 40
0.0
 10
0.0
 20
0.0
 30
2.000000000000000E+50
 75
     0
  0
DIMASSOC
  5
10E1
102
{ACAD_REACTORS
330
10D7
102
}
330
10D7
100
AcDbDimAssoc
330
10CA
 90
        3
 70
     0
 71
     0
  1
AcDbOsnapPointRef
 72
     1
331
10BE
 73
     2
 91
        0
 40
1.0
 10
0.0
 20
0.0
 30
2.000000000000000E+50
 75
     0
  1
AcDbOsnapPointRef
 72
    13
331
10C7
 73
     2
 91
        0
 40
0.0
 10
0.0
 20
0.0
 30
2.000000000000000E+50
 75
     0
  0
DIMASSOC
  5
155E
102
{ACAD_REACTORS
330
1554
102
}
330
1554
100
AcDbDimAssoc
330
1547
 90
        3
 70
     0
 71
     0
  1
AcDbOsnapPointRef
 72
    13
331
423
 73
     2
 91
        0
 40
0.0
 10
0.0
 20
0.0
 30
2.000000000000000E+50
 75
     0
  1
AcDbOsnapPointRef
 72
     1
331
430
 73
     2
 91
        0
 40
0.0
 10
0.0
 20
0.0
 30
2.000000000000000E+50
 75
     0
  0
DIMASSOC
  5
158E
102
{ACAD_REACTORS
330
1584
102
}
330
1584
100
AcDbDimAssoc
330
1577
 90
        2
 70
     0
 71
     0
  1
AcDbOsnapPointRef
 72
    13
331
433
 73
     2
 91
        0
 40
0.0
 10
0.0
 20
0.0
 30
2.000000000000000E+50
 75
     0
  0
DIMASSOC
  5
15A6
102
{ACAD_REACTORS
330
159C
102
}
330
159C
100
AcDbDimAssoc
330
158F
 90
        3
 70
     0
 71
     0
  1
AcDbOsnapPointRef
 72
    13
331
433
 73
     2
 91
        0
 40
0.0
 10
0.0
 20
0.0
 30
2.000000000000000E+50
 75
     0
  1
AcDbOsnapPointRef
 72
     1
331
433
 73
     2
 91
        0
 40
0.9999999999999998
 10
0.0
 20
0.0
 30
2.000000000000000E+50
 75
     0
  0
DIMASSOC
  5
174A
102
{ACAD_REACTORS
330
1744
102
}
330
1744
100
AcDbDimAssoc
330
173B
 90
        2
 70
     0
 71
     0
  1
AcDbOsnapPointRef
 72
     3
331
1719
 73
     2
 91
        0
 40
0.0
 10
0.0
 20
0.0
 30
0.0
 75
     0
  0
DIMASSOC
  5
1985
102
{ACAD_REACTORS
330
197F
102
}
330
197F
100
AcDbDimAssoc
330
1976
 90
        2
 70
     0
 71
     0
  1
AcDbOsnapPointRef
 72
     3
331
171A
 73
     2
 91
        0
 40
0.0
 10
0.0
 20
0.0
 30
0.0
 75
     0
  0
DIMASSOC
  5
19B7
102
{ACAD_REACTORS
330
19AD
102
}
330
19AD
100
AcDbDimAssoc
330
19A0
 90
        1
 70
     0
 71
     0
  1
AcDbOsnapPointRef
 72
    13
331
422
 73
     2
 91
        0
 40
0.0
 10
0.0
 20
0.0
 30
2.000000000000000E+50
 75
     0
  0
DIMASSOC
  5
19FB
102
{ACAD_REACTORS
330
19F1
102
}
330
19F1
100
AcDbDimAssoc
330
19E4
 90
        1
 70
     0
 71
     0
  1
AcDbOsnapPointRef
 72
    13
331
422
 73
     2
 91
        0
 40
0.0
 10
0.0
 20
0.0
 30
2.000000000000000E+50
 75
     0
  0
DIMASSOC
  5
20D7
102
{ACAD_REACTORS
330
20CB
102
}
330
20CB
100
AcDbDimAssoc
330
20BC
 90
       15
 70
     0
 71
     0
  1
AcDbOsnapPointRef
 72
    13
331
204F
 73
     2
 91
        0
 40
0.0
 10
0.0
 20
0.0
 30
2.000000000000000E+50
 75
     0
  1
AcDbOsnapPointRef
 72
     1
331
204F
 73
     2
 91
        0
 40
0.9999999999999998
 10
0.0
 20
0.0
 30
2.000000000000000E+50
 75
     0
  1
AcDbOsnapPointRef
 72
    13
331
204D
 73
     2
 91
        0
 40
0.0
 10
0.0
 20
0.0
 30
2.000000000000000E+50
 75
     0
  1
AcDbOsnapPointRef
 72
     1
331
204D
 73
     2
 91
        0
 40
1.0
 10
0.0
 20
0.0
 30
2.000000000000000E+50
 75
     0
  0
XRECORD
  5
33C1
102
{ACAD_REACTORS
330
33C0
102
}
330
33C0
100
AcDbXrecord
280
     1
102
SHADEPLOT
 70
     0
  0
XRECORD
  5
33C5
102
{ACAD_REACTORS
330
33C4
102
}
330
33C4
100
AcDbXrecord
280
     1
102
SHADEPLOT
 70
     0
  0
LAYOUT
  5
22
102
{ACAD_XDICTIONARY
360
33BC
102
}
102
{ACAD_REACTORS
330
1A
102
}
330
1A
100
AcDbPlotSettings
  1

  2
EPSON LP-6100
  4
A3
  6

 40
5.873749732971191
 41
5.873747825622558
 42
5.873748779296875
 43
5.873748779296875
 44
297.0106506347656
 45
419.9466552734374
 46
1.629999999999999
 47
2.85
 48
1800.0
 49
1500.0
140
82300.00000000002
141
57899.99999999999
142
1.0
143
200.0
 70
 11940
 72
     1
 73
     1
 74
     4
  7
acad.ctb
 75
     0
147
0.005
148
-1800.0
149
-1500.0
100
AcDbLayout
  1
Model
 70
     1
 71
     0
 10
0.0
 20
0.0
 11
12.0
 21
9.0
 12
0.0
 22
0.0
 32
0.0
 14
0.0
 24
0.0
 34
0.0
 15
0.0
 25
0.0
 35
0.0
146
0.0
 13
0.0
 23
0.0
 33
0.0
 16
1.0
 26
0.0
 36
0.0
 17
0.0
 27
1.0
 37
0.0
 76
     0
330
1F
  0
LAYOUT
  5
59
102
{ACAD_XDICTIONARY
360
33BE
102
}
102
{ACAD_REACTORS
330
1A
102
}
330
1A
100
AcDbPlotSettings
  1

  2
HP DesignJet 450C (E/A0) by HP
  4
User1295
  6

 40
4.995333194732666
 41
16.93330574035644
 42
4.99530029296875
 43
16.933349609375
 44
840.9093017578125
 45
593.8519897460937
 46
0.0
 47
0.0
 48
-0.204263359063134
 49
-0.2266746213263104
140
831.9790541654901
141
559.3564214161772
142
1.0
143
1.0
 70
   688
 72
     1
 73
     0
 74
     5
  7
acad.ctb
 75
    16
147
1.0
148
0.0
149
0.0
100
AcDbLayout
  1
レイアウト1
 70
     1
 71
     1
 10
-4.995333194732666
 20
-16.93330574035644
 11
835.9139685630799
 21
576.9186840057373
 12
0.0
 22
0.0
 32
0.0
 14
-4.573084313602066
 24
-17.86107416140976
 34
0.0
 15
835.4401762790061
 25
578.1192076894862
 35
0.0
146
0.0
 13
0.0
 23
0.0
 33
0.0
 16
1.0
 26
0.0
 36
0.0
 17
0.0
 27
1.0
 37
0.0
 76
     0
330
58
331
21DD
  0
MLINESTYLE
  5
18
102
{ACAD_REACTORS
330
17
102
}
330
17
100
AcDbMlineStyle
  2
STANDARD
 70
     0
  3

 62
   256
 51
90.0
 52
90.0
 71
     2
 49
0.5
 62
   256
  6
BYLAYER
 49
-0.5
 62
   256
  6
BYLAYER
  0
PLOTSETTINGS
  5
21D0
102
{ACAD_XDICTIONARY
360
33C2
102
}
102
{ACAD_REACTORS
330
19
102
}
330
19
100
AcDbPlotSettings
  1
レイアウト1
  2
HP DesignJet 450C (E_A0) by HP.pc3
  4
User1295
  6

 40
4.995333194732666
 41
16.93330574035644
 42
4.99530029296875
 43
16.933349609375
 44
840.9093017578125
 45
593.8519897460937
 46
-39834.54
 47
-27920.01
 48
1800.0
 49
1500.0
140
82300.00000000002
141
57899.99999999999
142
1.0
143
1.0
 70
  1716
 72
     1
 73
     0
 74
     4
  7
acad.ctb
 75
    16
147
1.0
148
-1800.0
149
-1500.0
  0
ACDBPLACEHOLDER
  5
F
102
{ACAD_REACTORS
330
E
102
}
330
E
  0
XRECORD
  5
33BB
102
{ACAD_REACTORS
330
33B9
102
}
330
33B9
100
AcDbXrecord
280
     1
340
73
  0
XRECORD
  5
33BA
102
{ACAD_REACTORS
330
33B9
102
}
330
33B9
100
AcDbXrecord
280
     1
340
72
  0
DICTIONARYVAR
  5
67
102
{ACAD_REACTORS
330
66
102
}
330
66
100
DictionaryVariables
280
     0
  1
2
  0
DICTIONARYVAR
  5
6B
102
{ACAD_REACTORS
330
66
102
}
330
66
100
DictionaryVariables
280
     0
  1
1
  0
DICTIONARYVAR
  5
33B7
102
{ACAD_REACTORS
330
66
102
}
330
66
100
DictionaryVariables
280
     0
  1

  0
DICTIONARY
  5
33BC
330
22
100
AcDbDictionary
280
     1
281
     1
  3
ACAD_XREC_ROUNDTRIP
360
33BD
  0
DICTIONARY
  5
33BE
330
59
100
AcDbDictionary
280
     1
281
     1
  3
ACAD_XREC_ROUNDTRIP
360
33BF
  0
DICTIONARY
  5
33C2
330
21D0
100
AcDbDictionary
280
     1
281
     1
  3
ACAD_XREC_ROUNDTRIP
360
33C3
  0
XRECORD
  5
33BD
102
{ACAD_REACTORS
330
33BC
102
}
330
33BC
100
AcDbXrecord
280
     1
102
SHADEPLOT
 70
     0
102
SHADEPLOTRESLEVEL
 70
     2
102
SHADEPLOTCUSTOMDPI
 70
   300
  0
XRECORD
  5
33BF
102
{ACAD_REACTORS
330
33BE
102
}
330
33BE
100
AcDbXrecord
280
     1
102
SHADEPLOT
 70
     1
102
SHADEPLOTRESLEVEL
 70
     2
102
SHADEPLOTCUSTOMDPI
 70
   150
  0
XRECORD
  5
33C3
102
{ACAD_REACTORS
330
33C2
102
}
330
33C2
100
AcDbXrecord
280
     1
102
SHADEPLOT
 70
     0
102
SHADEPLOTRESLEVEL
 70
     2
102
SHADEPLOTCUSTOMDPI
 70
   150
  0
ENDSEC
  0
EOF
